File Size90.99 MB (95,407,807 bytes)
DownloadClickNUpload | DownloadGG | GoFile | KrakenFiles | MdiaLoad | MultiUp
  • BdUpload
  • DownAce
  • Fichier
  • FileCloud
  • Filerio
  • FilesCdn
  • IndiShare
  • Kbagi
  • Turbobit
  • UpToBox
  • Uppit
HashesCRC32: 215FD27F, MD5: ADED89F09C8683944C4C788D3FAEFAA1, SHA1: C292FFF11FE59AF4CDD19855058F37A46C73D586, SHA256: 8288EF045BCF847EEDE1D7BFD6925742B62AA57189221D9F2962B20B7ADF5749, ED2K: F9B6E9E3901937226A5609D6FE7A63DF
Screenshots
screenshotscreenshotscreenshotscreenshotscreenshot
SubtitlesAll Attachments | English [eng, ASS]
Additional Info
General
Unique ID                                : 204374573400875133464667402002321658769 (0x99C11C6FA27F9BFF626A9A0EE0245391)
Complete name                            : [Erai-raws] Yumemiru Danshi wa Genjitsushugisha - 08 [480p][215FD27F].mkv
Format                                   : Matroska
Format version                           : Version 4
File size                                : 91.0 MiB
Duration                                 : 23 min 43 s
Overall bit rate                         : 536 kb/s
Encoded date                             : UTC 2023-08-21 18:00:34
Writing application                      : mkvmerge v76.0 ('Celebration') 64-bit
Writing library                          : libebml v1.4.4 + libmatroska v1.7.1 / Lavf60.5.100
Attachments                              : AdLibBT.ttf / AdLibRg.ttf / BakerSignetBT.ttf / BakerSignetBTRoman.ttf / BelweBdBTBold.ttf / calibrib_0.ttf / calibril_0.ttf / FirstGrader.ttf / Inc901Bd.ttf / inc901l.ttf / Inc901Lt.ttf / MeadBold.ttf / staccato 555 bt.ttf / Swis721_BT_Bold.ttf / tahomabd_0.ttf / TEMPSITC.TTF / timesbd_0.ttf / Tonic Regular.ttf / tt0390m.ttf

Video
ID                                       : 1
Format                                   : AVC
Format/Info                              : Advanced Video Codec
Format profile                           : Main@L3.1
Format settings                          : CABAC / 6 Ref Frames
Format settings, CABAC                   : Yes
Format settings, Reference frames        : 6 frames
Codec ID                                 : V_MPEG4/ISO/AVC
Duration                                 : 23 min 42 s
Bit rate                                 : 381 kb/s
Width                                    : 854 pixels
Height                                   : 480 pixels
Display aspect ratio                     : 16:9
Frame rate mode                          : Constant
Frame rate                               : 23.976 (24000/1001) FPS
Color space                              : YUV
Chroma subsampling                       : 4:2:0
Bit depth                                : 8 bits
Scan type                                : Progressive
Bits/(Pixel*Frame)                       : 0.039
Stream size                              : 64.6 MiB (71%)
Writing library                          : x264 core 148
Encoding settings                        : cabac=1 / ref=6 / deblock=1:0:0 / analyse=0x1:0x111 / me=hex / subme=7 / psy=1 / psy_rd=1.00:0.00 / mixed_ref=1 / me_range=16 / chroma_me=1 / trellis=1 / 8x8dct=0 / cqm=0 / deadzone=21,11 / fast_pskip=1 / chroma_qp_offset=-2 / threads=15 / lookahead_threads=2 / sliced_threads=0 / nr=0 / decimate=1 / interlaced=0 / bluray_compat=0 / constrained_intra=0 / bframes=3 / b_pyramid=2 / b_adapt=1 / b_bias=0 / direct=1 / weightb=1 / open_gop=0 / weightp=2 / keyint=90 / keyint_min=9 / scenecut=0 / intra_refresh=0 / rc_lookahead=40 / rc=crf / mbtree=1 / crf=22.0 / qcomp=0.60 / qpmin=0 / qpmax=69 / qpstep=4 / vbv_maxrate=3500 / vbv_bufsize=7680 / crf_max=0.0 / nal_hrd=none / filler=0 / ip_ratio=1.40 / aq=1:1.00
Language                                 : Japanese
Default                                  : Yes
Forced                                   : No

Audio
ID                                       : 2
Format                                   : AAC LC
Format/Info                              : Advanced Audio Codec Low Complexity
Codec ID                                 : A_AAC-2
Duration                                 : 23 min 43 s
Bit rate                                 : 126 kb/s
Channel(s)                               : 2 channels
Channel layout                           : L R
Sampling rate                            : 44.1 kHz
Frame rate                               : 43.066 FPS (1024 SPF)
Compression mode                         : Lossy
Delay relative to video                  : -1 s 34 ms
Stream size                              : 21.3 MiB (23%)
Language                                 : Japanese
Default                                  : Yes
Forced                                   : No

Text
ID                                       : 3
Format                                   : ASS
Codec ID                                 : S_TEXT/ASS
Codec ID/Info                            : Advanced Sub Station Alpha
Duration                                 : 23 min 35 s
Bit rate                                 : 171 b/s
Count of elements                        : 486
Compression mode                         : Lossless
Stream size                              : 29.7 KiB (0%)
Title                                    : English
Language                                 : English
Default                                  : Yes
Forced                                   : No
beta
Anime DDL+NZB mirror
Current Time: 16/06/2024 15:38



About/FAQs

Discord