[Erai-raws] Violet Evergarden (Special) [BD 1080p AVC-YUV444P10 FLAC].mkv


File Size1.140 GB (1,223,708,393 bytes)
DownloadClickNUpload: Part1, Part2
Jheberg: Part1, Part2
MultiUp: Part1, Part2
OpenLoad: Part1, Part2
Sendspace: Part1, Part2, Part3, Part4
SolidFiles: Part1, Part2, Part3
ZippyShare: Part1, Part2, Part3
Encrypted DownloadDirect: Part1, Part2
Password:
HashesCRC32: EF412DAD, MD5: EEA8BD43702B8621C89B6F586ED5181E, SHA1: 9A9840074FAC0B961D226005554085AA0F5ADF58, SHA256: 379D03D4DA9BF427B6EC078C4F05A894E3835B54EE40BC2801995EE0C5D20D2B, ED2K: 3FBABD423DC9ABC64463EC642A04CB0F
Screenshots
screenshotscreenshotscreenshotscreenshotscreenshot
SubtitlesAll Attachments | eng [ASS], spa [ASS], spa [ASS], fre [ASS], ita [ASS], por [ASS], por [ASS], und [ASS], ger [ASS]
Additional Info
General
Unique ID                                : 65294748897344290567737614108200723519 (0x311F4FAB8A9960EC9EC5D7E5C45AE43F)
Complete name                            : [Erai-raws] Violet Evergarden (Special) [BD 1080p AVC-YUV444P10 FLAC].mkv
Format                                   : Matroska
Format version                           : Version 4 / Version 2
File size                                : 1.14 GiB
Duration                                 : 34 min 14 s
Overall bit rate mode                    : Variable
Overall bit rate                         : 4 764 kb/s
Encoded date                             : UTC 2018-10-04 18:08:34
Writing application                      : mkvmerge v26.0.0 ('In The Game') 64-bit
Writing library                          : libebml v1.3.6 + libmatroska v1.4.9

Video
ID                                       : 8
Format                                   : AVC
Format/Info                              : Advanced Video Codec
Format profile                           : High 4:4:4 Predictive@L4.2
Format settings, CABAC                   : Yes
Format settings, ReFrames                : 16 frames
Codec ID                                 : V_MPEG4/ISO/AVC
Duration                                 : 34 min 14 s
Bit rate                                 : 3 332 kb/s
Width                                    : 1 920 pixels
Height                                   : 1 080 pixels
Display aspect ratio                     : 16:9
Frame rate mode                          : Constant
Frame rate                               : 23.976 (24000/1001) FPS
Color space                              : YUV
Chroma subsampling                       : 4:4:4
Bit depth                                : 10 bits
Scan type                                : Progressive
Bits/(Pixel*Frame)                       : 0.067
Stream size                              : 816 MiB (70%)
Writing library                          : x264 core 150 r2833+58 090e24f t_mod_Custom [10-bit@all X86_64]
Encoding settings                        : cabac=1 / ref=16 / deblock=1:-2:-2 / analyse=0x3:0x133 / me=esa / subme=11 / psy=1 / fade_compensate=0.00 / psy_rd=0.65:0.00 / mixed_ref=1 / me_range=30 / chroma_me=1 / trellis=2 / 8x8dct=1 / cqm=0 / deadzone=21,11 / fast_pskip=0 / chroma_qp_offset=4 / threads=30 / lookahead_threads=7 / sliced_threads=0 / nr=0 / decimate=1 / interlaced=0 / bluray_compat=0 / constrained_intra=0 / fgo=0 / bframes=16 / b_pyramid=2 / b_adapt=2 / b_bias=0 / direct=3 / weightb=1 / open_gop=1 / weightp=2 / keyint=250 / keyint_min=23 / scenecut=40 / intra_refresh=0 / rc_lookahead=60 / rc=crf / mbtree=1 / crf=15.0000 / qcomp=0.65 / qpmin=0:0:0 / qpmax=81:81:81 / qpstep=4 / ip_ratio=1.40 / aq=3:0.75 / aq-sensitivity=10.00 / aq-factor=1.00:1.00:1.00 / aq2=0 / aq3=0
Language                                 : Japanese
Default                                  : Yes
Forced                                   : No
Color range                              : Limited
Color primaries                          : BT.709
Transfer characteristics                 : BT.709
Matrix coefficients                      : BT.709

Audio
ID                                       : 9
Format                                   : FLAC
Format/Info                              : Free Lossless Audio Codec
Codec ID                                 : A_FLAC
Duration                                 : 34 min 14 s
Bit rate mode                            : Variable
Bit rate                                 : 1 429 kb/s
Channel(s)                               : 2 channels
Channel positions                        : Front: L R
Sampling rate                            : 48.0 kHz
Frame rate                               : 11.719 FPS (4096 spf)
Bit depth                                : 24 bits
Stream size                              : 350 MiB (30%)
Writing library                          : libFLAC 1.3.2 (UTC 2017-01-01)
Language                                 : Japanese
Default                                  : Yes
Forced                                   : No

Text #1
ID                                       : 1
Format                                   : ASS
Codec ID                                 : S_TEXT/ASS
Codec ID/Info                            : Advanced Sub Station Alpha
Duration                                 : 31 min 8 s
Bit rate                                 : 92 b/s
Count of elements                        : 428
Compression mode                         : Lossless
Stream size                              : 21.0 KiB (0%)
Language                                 : English
Default                                  : Yes
Forced                                   : No

Text #2
ID                                       : 2
Format                                   : ASS
Codec ID                                 : S_TEXT/ASS
Codec ID/Info                            : Advanced Sub Station Alpha
Duration                                 : 31 min 8 s
Bit rate                                 : 88 b/s
Count of elements                        : 378
Compression mode                         : Lossless
Stream size                              : 20.1 KiB (0%)
Language                                 : Spanish
Default                                  : No
Forced                                   : No

Text #3
ID                                       : 3
Format                                   : ASS
Codec ID                                 : S_TEXT/ASS
Codec ID/Info                            : Advanced Sub Station Alpha
Duration                                 : 31 min 8 s
Bit rate                                 : 104 b/s
Count of elements                        : 487
Compression mode                         : Lossless
Stream size                              : 23.8 KiB (0%)
Language                                 : Spanish
Default                                  : No
Forced                                   : No

Text #4
ID                                       : 4
Format                                   : ASS
Codec ID                                 : S_TEXT/ASS
Codec ID/Info                            : Advanced Sub Station Alpha
Duration                                 : 31 min 8 s
Bit rate                                 : 90 b/s
Count of elements                        : 448
Compression mode                         : Lossless
Stream size                              : 20.7 KiB (0%)
Language                                 : French
Default                                  : No
Forced                                   : No

Text #5
ID                                       : 5
Format                                   : ASS
Codec ID                                 : S_TEXT/ASS
Codec ID/Info                            : Advanced Sub Station Alpha
Duration                                 : 31 min 8 s
Bit rate                                 : 85 b/s
Count of elements                        : 433
Compression mode                         : Lossless
Stream size                              : 19.6 KiB (0%)
Language                                 : Italian
Default                                  : No
Forced                                   : No

Text #6
ID                                       : 6
Format                                   : ASS
Codec ID                                 : S_TEXT/ASS
Codec ID/Info                            : Advanced Sub Station Alpha
Duration                                 : 31 min 34 s
Bit rate                                 : 82 b/s
Count of elements                        : 391
Compression mode                         : Lossless
Stream size                              : 19.1 KiB (0%)
Language                                 : Portuguese
Default                                  : No
Forced                                   : No

Text #7
ID                                       : 7
Format                                   : ASS
Codec ID                                 : S_TEXT/ASS
Codec ID/Info                            : Advanced Sub Station Alpha
Duration                                 : 31 min 8 s
Bit rate                                 : 88 b/s
Count of elements                        : 467
Compression mode                         : Lossless
Stream size                              : 20.2 KiB (0%)
Language                                 : Portuguese
Default                                  : No
Forced                                   : No

Text #8
ID                                       : 10
Format                                   : ASS
Codec ID                                 : S_TEXT/ASS
Codec ID/Info                            : Advanced Sub Station Alpha
Duration                                 : 31 min 8 s
Bit rate                                 : 128 b/s
Count of elements                        : 486
Compression mode                         : Lossless
Stream size                              : 29.4 KiB (0%)
Default                                  : No
Forced                                   : No

Text #9
ID                                       : 11
Format                                   : ASS
Codec ID                                 : S_TEXT/ASS
Codec ID/Info                            : Advanced Sub Station Alpha
Duration                                 : 31 min 8 s
Bit rate                                 : 101 b/s
Count of elements                        : 460
Compression mode                         : Lossless
Stream size                              : 23.2 KiB (0%)
Language                                 : German
Default                                  : No
Forced                                   : No
beta
Anime DDL+NZB mirror
Current Time: 09/04/2020 19:01



About/FAQs