File Size675.3 MB (708,067,458 bytes)
DownloadClickNUpload | DownloadGG | GoFile | KrakenFiles | MdiaLoad
MultiUp: Part1
  • BdUpload
  • DownAce
  • Fichier
  • FileCloud
  • Filerio
  • FilesCdn
  • IndiShare
  • Kbagi
  • Turbobit
  • UpToBox
  • Uppit
, Part2
  • BdUpload
  • DownAce
  • Fichier
  • FileCloud
  • Filerio
  • FilesCdn
  • IndiShare
  • Kbagi
  • Turbobit
  • UpToBox
  • Uppit
HashesCRC32: 4455A584, MD5: EBE1C23BFC212643571C3ADCB5015749, SHA1: BD74A0BBD26AC1202E49DBD560497781C955908A, SHA256: AEADD95C1EF459EB6852463CEAF9A68B5E5030399795200F6949B5A03CE787E7, ED2K: 491E98AB82D8936E5A8BA8BA3E89AFA7
Screenshots
screenshotscreenshotscreenshotscreenshotscreenshot
SubtitlesAll Attachments | English [eng, ASS], Portuguese(Brazil) [por, ASS], Spanish(Latin_America) [spa, ASS], Spanish [spa, ASS], Arabic [ara, ASS], French [fre, ASS], German [ger, ASS], Italian [ita, ASS], Russian [rus, ASS]
Additional Info
General
Unique ID                                : 182817543398251758701589124253983132241 (0x898960CC68259C46106F5F0B14CF4A51)
Complete name                            : [Erai-raws] Undead Girl Murder Farce - 03 [720p][Multiple Subtitle][4455A584].mkv
Format                                   : Matroska
Format version                           : Version 4
File size                                : 675 MiB
Duration                                 : 22 min 50 s
Overall bit rate                         : 4 134 kb/s
Encoded date                             : UTC 2023-07-19 17:31:14
Writing application                      : mkvmerge v77.0 ('Elemental') 64-bit
Writing library                          : libebml v1.4.4 + libmatroska v1.7.1
Attachments                              : arialbd.ttf / arialbi.ttf / Arial_0.ttf / ariblk_0.TTF / calibri.ttf / comicbd.ttf / comic_0.ttf / georgiab.ttf / georgiaz.ttf / georgia_0.ttf / impact_0.ttf / Tahoma_0.ttf / times_0.ttf / trebuc_0.ttf / verdana_0.ttf / AdobeArabic-Bold.otf / AdobeArabic-BoldItalic.otf / AdobeArabic-Italic.otf / AdobeArabic-Regular.otf

Video
ID                                       : 1
Format                                   : AVC
Format/Info                              : Advanced Video Codec
Format profile                           : High@L4
Format settings                          : CABAC / 6 Ref Frames
Format settings, CABAC                   : Yes
Format settings, Reference frames        : 6 frames
Codec ID                                 : V_MPEG4/ISO/AVC
Duration                                 : 22 min 50 s
Bit rate                                 : 4 000 kb/s
Width                                    : 1 280 pixels
Height                                   : 720 pixels
Display aspect ratio                     : 16:9
Frame rate mode                          : Constant
Frame rate                               : 23.976 (24000/1001) FPS
Color space                              : YUV
Chroma subsampling                       : 4:2:0
Bit depth                                : 8 bits
Scan type                                : Progressive
Bits/(Pixel*Frame)                       : 0.181
Stream size                              : 647 MiB (96%)
Writing library                          : x264 core 164
Encoding settings                        : cabac=1 / ref=6 / deblock=1:1:1 / analyse=0x3:0x113 / me=hex / subme=8 / psy=1 / psy_rd=0.40:0.00 / mixed_ref=1 / me_range=16 / chroma_me=1 / trellis=2 / 8x8dct=1 / cqm=0 / deadzone=21,11 / fast_pskip=1 / chroma_qp_offset=-2 / threads=22 / lookahead_threads=3 / sliced_threads=0 / nr=0 / decimate=1 / interlaced=0 / bluray_compat=0 / constrained_intra=0 / bframes=0 / weightp=2 / keyint=96 / keyint_min=48 / scenecut=40 / intra_refresh=0 / rc_lookahead=48 / rc=2pass / mbtree=1 / bitrate=4000 / ratetol=1.0 / qcomp=0.60 / qpmin=0 / qpmax=69 / qpstep=4 / cplxblur=20.0 / qblur=0.5 / vbv_maxrate=6000 / vbv_bufsize=9000 / nal_hrd=none / filler=0 / ip_ratio=1.40 / aq=1:0.60
Language                                 : Japanese
Default                                  : Yes
Forced                                   : No
Color range                              : Limited
Color primaries                          : BT.709
Transfer characteristics                 : BT.709
Matrix coefficients                      : BT.709

Audio
ID                                       : 2
Format                                   : AAC LC
Format/Info                              : Advanced Audio Codec Low Complexity
Codec ID                                 : A_AAC-2
Duration                                 : 22 min 50 s
Bit rate                                 : 128 kb/s
Channel(s)                               : 2 channels
Channel layout                           : L R
Sampling rate                            : 44.1 kHz
Frame rate                               : 43.066 FPS (1024 SPF)
Compression mode                         : Lossy
Stream size                              : 20.9 MiB (3%)
Language                                 : Japanese
Default                                  : Yes
Forced                                   : No

Text #1
ID                                       : 3
Format                                   : ASS
Codec ID                                 : S_TEXT/ASS
Codec ID/Info                            : Advanced Sub Station Alpha
Duration                                 : 19 min 52 s
Bit rate                                 : 183 b/s
Count of elements                        : 363
Compression mode                         : Lossless
Stream size                              : 26.7 KiB (0%)
Title                                    : English
Language                                 : English
Default                                  : Yes
Forced                                   : No

Text #2
ID                                       : 4
Format                                   : ASS
Codec ID                                 : S_TEXT/ASS
Codec ID/Info                            : Advanced Sub Station Alpha
Duration                                 : 19 min 52 s
Bit rate                                 : 185 b/s
Count of elements                        : 362
Compression mode                         : Lossless
Stream size                              : 27.0 KiB (0%)
Title                                    : Portuguese(Brazil)
Language                                 : Portuguese
Default                                  : No
Forced                                   : No

Text #3
ID                                       : 5
Format                                   : ASS
Codec ID                                 : S_TEXT/ASS
Codec ID/Info                            : Advanced Sub Station Alpha
Duration                                 : 19 min 52 s
Bit rate                                 : 182 b/s
Count of elements                        : 349
Compression mode                         : Lossless
Stream size                              : 26.6 KiB (0%)
Title                                    : Spanish(Latin_America)
Language                                 : Spanish
Default                                  : No
Forced                                   : No

Text #4
ID                                       : 6
Format                                   : ASS
Codec ID                                 : S_TEXT/ASS
Codec ID/Info                            : Advanced Sub Station Alpha
Duration                                 : 19 min 52 s
Bit rate                                 : 183 b/s
Count of elements                        : 349
Compression mode                         : Lossless
Stream size                              : 26.7 KiB (0%)
Title                                    : Spanish
Language                                 : Spanish
Default                                  : No
Forced                                   : No

Text #5
ID                                       : 7
Format                                   : ASS
Codec ID                                 : S_TEXT/ASS
Codec ID/Info                            : Advanced Sub Station Alpha
Duration                                 : 19 min 52 s
Bit rate                                 : 214 b/s
Count of elements                        : 363
Compression mode                         : Lossless
Stream size                              : 31.1 KiB (0%)
Title                                    : Arabic
Language                                 : Arabic
Default                                  : No
Forced                                   : No

Text #6
ID                                       : 8
Format                                   : ASS
Codec ID                                 : S_TEXT/ASS
Codec ID/Info                            : Advanced Sub Station Alpha
Duration                                 : 21 min 20 s
Bit rate                                 : 185 b/s
Count of elements                        : 387
Compression mode                         : Lossless
Stream size                              : 28.9 KiB (0%)
Title                                    : French
Language                                 : French
Default                                  : No
Forced                                   : No

Text #7
ID                                       : 9
Format                                   : ASS
Codec ID                                 : S_TEXT/ASS
Codec ID/Info                            : Advanced Sub Station Alpha
Duration                                 : 20 min 4 s
Bit rate                                 : 205 b/s
Count of elements                        : 377
Compression mode                         : Lossless
Stream size                              : 30.2 KiB (0%)
Title                                    : German
Language                                 : German
Default                                  : No
Forced                                   : No

Text #8
ID                                       : 10
Format                                   : ASS
Codec ID                                 : S_TEXT/ASS
Codec ID/Info                            : Advanced Sub Station Alpha
Duration                                 : 19 min 52 s
Bit rate                                 : 185 b/s
Count of elements                        : 383
Compression mode                         : Lossless
Stream size                              : 27.0 KiB (0%)
Title                                    : Italian
Language                                 : Italian
Default                                  : No
Forced                                   : No

Text #9
ID                                       : 11
Format                                   : ASS
Codec ID                                 : S_TEXT/ASS
Codec ID/Info                            : Advanced Sub Station Alpha
Duration                                 : 21 min 17 s
Bit rate                                 : 299 b/s
Count of elements                        : 399
Compression mode                         : Lossless
Stream size                              : 46.8 KiB (0%)
Title                                    : Russian
Language                                 : Russian
Default                                  : No
Forced                                   : No
beta
Anime DDL+NZB mirror
Current Time: 20/07/2024 21:31



About/FAQs

Discord