[Erai-raws] Tensei shitara Slime Datta Ken - Coleus no Yume - 01 [720p][Multiple Subtitle][1B753385].mkv


File Size752.1 MB (788,598,234 bytes)
DownloadClickNUpload | DailyUploads | DownloadGG | GoFile | KrakenFiles | MdiaLoad | Uppit
MultiUp: Part1
  • BdUpload
  • DownAce
  • Fichier
  • FileCloud
  • Filerio
  • FilesCdn
  • IndiShare
  • Kbagi
  • Turbobit
  • UpToBox
  • Uppit
, Part2
  • BdUpload
  • DownAce
  • Fichier
  • FileCloud
  • Filerio
  • FilesCdn
  • IndiShare
  • Kbagi
  • Turbobit
  • UpToBox
  • Uppit
HashesCRC32: 1B753385, MD5: F1DEC10C4A50E62926B6D9EBAC0FFCA9, SHA1: E2F523D77BB4B6930DA6DE4B16CAD0FE23589022, SHA256: ED242FB22E1E46A06B61C290D2DFA7FF956548BF75825E542F183D864189044B, ED2K: 49764E9C85147F45BFA4BB0AE997FE3B
Screenshots
screenshotscreenshotscreenshotscreenshotscreenshot
SubtitlesAll Attachments | English [eng, ASS], Portuguese(Brazil) [por, ASS], Spanish(Latin_America) [spa, ASS], Spanish [spa, ASS], Arabic [ara, ASS], French [fre, ASS], German [ger, ASS], Italian [ita, ASS], Russian [rus, ASS]
Additional Info
General
Unique ID                                : 151334826063365900904928203208460991459 (0x71DA06FE13B4E75744BEB70A6051FBE3)
Complete name                            : [Erai-raws] Tensei shitara Slime Datta Ken - Coleus no Yume - 01 [720p][Multiple Subtitle][1B753385].mkv
Format                                   : Matroska
Format version                           : Version 4
File size                                : 752 MiB
Duration                                 : 24 min 30 s
Overall bit rate                         : 4 291 kb/s
Frame rate                               : 23.976 FPS
Encoded date                             : 2024-01-22 03:49:28 UTC
Writing application                      : mkvmerge v82.0 ('I'm The President') 64-bit
Writing library                          : libebml v1.4.5 + libmatroska v1.7.1
Attachments                              : arialbd.ttf / ARIALBD_0.TTF / arialbi.ttf / arialuni.ttf / Arial_0.ttf / ariblk_0.TTF / calibri.ttf / comicbd.ttf / comic_0.ttf / georgiab.ttf / georgiaz.ttf / georgia_0.ttf / impact_0.ttf / OpenSans-ExtraBold.ttf / OpenSans_Bold.ttf / ROCKEB.TTF / Tahoma_0.ttf / times_0.ttf / trebuc_0.ttf / verdana_0.ttf / AdobeArabic-Bold.otf / AdobeArabic-BoldItalic.otf / AdobeArabic-Italic.otf / AdobeArabic-Regular.otf

Video
ID                                       : 1
Format                                   : AVC
Format/Info                              : Advanced Video Codec
Format profile                           : High@L4
Format settings                          : CABAC / 6 Ref Frames
Format settings, CABAC                   : Yes
Format settings, Reference frames        : 6 frames
Codec ID                                 : V_MPEG4/ISO/AVC
Duration                                 : 24 min 30 s
Bit rate                                 : 4 000 kb/s
Width                                    : 1 280 pixels
Height                                   : 720 pixels
Display aspect ratio                     : 16:9
Frame rate mode                          : Constant
Frame rate                               : 23.976 (24000/1001) FPS
Color space                              : YUV
Chroma subsampling                       : 4:2:0
Bit depth                                : 8 bits
Scan type                                : Progressive
Bits/(Pixel*Frame)                       : 0.181
Stream size                              : 698 MiB (93%)
Writing library                          : x264 core 164
Encoding settings                        : cabac=1 / ref=6 / deblock=1:1:1 / analyse=0x3:0x113 / me=hex / subme=8 / psy=1 / psy_rd=0.40:0.00 / mixed_ref=1 / me_range=16 / chroma_me=1 / trellis=2 / 8x8dct=1 / cqm=0 / deadzone=21,11 / fast_pskip=1 / chroma_qp_offset=-2 / threads=9 / lookahead_threads=1 / sliced_threads=0 / nr=0 / decimate=1 / interlaced=0 / bluray_compat=0 / constrained_intra=0 / bframes=0 / weightp=2 / keyint=96 / keyint_min=48 / scenecut=40 / intra_refresh=0 / rc_lookahead=48 / rc=2pass / mbtree=1 / bitrate=4000 / ratetol=1.0 / qcomp=0.60 / qpmin=0 / qpmax=69 / qpstep=4 / cplxblur=20.0 / qblur=0.5 / vbv_maxrate=6000 / vbv_bufsize=9000 / nal_hrd=none / filler=0 / ip_ratio=1.40 / aq=1:0.60
Language                                 : Japanese
Default                                  : Yes
Forced                                   : No
Color range                              : Limited
Color primaries                          : BT.709
Transfer characteristics                 : BT.709
Matrix coefficients                      : BT.709

Audio
ID                                       : 2
Format                                   : AAC LC
Format/Info                              : Advanced Audio Codec Low Complexity
Codec ID                                 : A_AAC-2
Duration                                 : 24 min 30 s
Bit rate                                 : 128 kb/s
Channel(s)                               : 2 channels
Channel layout                           : L R
Sampling rate                            : 44.1 kHz
Frame rate                               : 43.066 FPS (1024 SPF)
Compression mode                         : Lossy
Stream size                              : 22.4 MiB (3%)
Language                                 : Japanese
Default                                  : Yes
Forced                                   : No

Text #1
ID                                       : 3
Format                                   : ASS
Codec ID                                 : S_TEXT/ASS
Codec ID/Info                            : Advanced Sub Station Alpha
Duration                                 : 24 min 26 s
Bit rate                                 : 180 b/s
Frame rate                               : 0.306 FPS
Count of elements                        : 448
Compression mode                         : Lossless
Stream size                              : 32.3 KiB (0%)
Title                                    : English
Language                                 : English
Default                                  : Yes
Forced                                   : No

Text #2
ID                                       : 4
Format                                   : ASS
Codec ID                                 : S_TEXT/ASS
Codec ID/Info                            : Advanced Sub Station Alpha
Duration                                 : 24 min 26 s
Bit rate                                 : 185 b/s
Frame rate                               : 0.305 FPS
Count of elements                        : 447
Compression mode                         : Lossless
Stream size                              : 33.2 KiB (0%)
Title                                    : Portuguese(Brazil)
Language                                 : Portuguese
Default                                  : No
Forced                                   : No

Text #3
ID                                       : 5
Format                                   : ASS
Codec ID                                 : S_TEXT/ASS
Codec ID/Info                            : Advanced Sub Station Alpha
Duration                                 : 24 min 26 s
Bit rate                                 : 194 b/s
Frame rate                               : 0.295 FPS
Count of elements                        : 432
Compression mode                         : Lossless
Stream size                              : 34.8 KiB (0%)
Title                                    : Spanish(Latin_America)
Language                                 : Spanish
Default                                  : No
Forced                                   : No

Text #4
ID                                       : 6
Format                                   : ASS
Codec ID                                 : S_TEXT/ASS
Codec ID/Info                            : Advanced Sub Station Alpha
Duration                                 : 24 min 26 s
Bit rate                                 : 194 b/s
Frame rate                               : 0.295 FPS
Count of elements                        : 432
Compression mode                         : Lossless
Stream size                              : 34.9 KiB (0%)
Title                                    : Spanish
Language                                 : Spanish
Default                                  : No
Forced                                   : No

Text #5
ID                                       : 7
Format                                   : ASS
Codec ID                                 : S_TEXT/ASS
Codec ID/Info                            : Advanced Sub Station Alpha
Duration                                 : 24 min 26 s
Bit rate                                 : 216 b/s
Frame rate                               : 0.306 FPS
Count of elements                        : 448
Compression mode                         : Lossless
Stream size                              : 38.8 KiB (0%)
Title                                    : Arabic
Language                                 : Arabic
Default                                  : No
Forced                                   : No

Text #6
ID                                       : 8
Format                                   : ASS
Codec ID                                 : S_TEXT/ASS
Codec ID/Info                            : Advanced Sub Station Alpha
Duration                                 : 24 min 24 s
Bit rate                                 : 164 b/s
Frame rate                               : 0.273 FPS
Count of elements                        : 400
Compression mode                         : Lossless
Stream size                              : 29.5 KiB (0%)
Title                                    : French
Language                                 : French
Default                                  : No
Forced                                   : No

Text #7
ID                                       : 9
Format                                   : ASS
Codec ID                                 : S_TEXT/ASS
Codec ID/Info                            : Advanced Sub Station Alpha
Duration                                 : 24 min 26 s
Bit rate                                 : 231 b/s
Frame rate                               : 0.283 FPS
Count of elements                        : 415
Compression mode                         : Lossless
Stream size                              : 41.4 KiB (0%)
Title                                    : German
Language                                 : German
Default                                  : No
Forced                                   : No

Text #8
ID                                       : 10
Format                                   : ASS
Codec ID                                 : S_TEXT/ASS
Codec ID/Info                            : Advanced Sub Station Alpha
Duration                                 : 24 min 26 s
Bit rate                                 : 199 b/s
Frame rate                               : 0.332 FPS
Count of elements                        : 487
Compression mode                         : Lossless
Stream size                              : 35.6 KiB (0%)
Title                                    : Italian
Language                                 : Italian
Default                                  : No
Forced                                   : No

Text #9
ID                                       : 11
Format                                   : ASS
Codec ID                                 : S_TEXT/ASS
Codec ID/Info                            : Advanced Sub Station Alpha
Duration                                 : 24 min 26 s
Bit rate                                 : 278 b/s
Frame rate                               : 0.305 FPS
Count of elements                        : 447
Compression mode                         : Lossless
Stream size                              : 49.8 KiB (0%)
Title                                    : Russian
Language                                 : Russian
Default                                  : No
Forced                                   : No

Other Files in this Torrent
[Erai-raws] Tensei shitara Slime Datta Ken - Coleus no Yume - 01 [720p][Multiple Subtitle][1B753385].mkv
beta
Anime DDL+NZB mirror
Current Time: 25/05/2024 21:19



About/FAQs

Discord