File Size359.9 MB (377,351,654 bytes)
DownloadAnonFiles | ClickNUpload | DownloadGG | DropAPK | MultiUp
  • BdUpload
  • DownAce
  • Fichier
  • FileCloud
  • Filerio
  • FilesCdn
  • IndiShare
  • Kbagi
  • Turbobit
  • UpToBox
  • Uppit
| SolidFiles | ZippyShare
HashesCRC32: A6628D84, MD5: E57A90797A274E0A3CEE9E635C6BC294, SHA1: 44EA63DB04BF5E41CAA526231EF5B6E5D6FD9BB2, SHA256: 9A43233EA1B2C8C31D5C9E20411EADC6B5BA7AB963939FDD649F8F29F357D390, ED2K: 8A9C3FAE7433C211812EB3C76BC79F53
Screenshots
screenshotscreenshotscreenshotscreenshotscreenshot
SubtitlesAll Attachments | English [eng, ASS], Portuguese(Brazil) [por, ASS], Spanish(Latin_America) [spa, ASS], Spanish [spa, ASS], Arabic [ara, ASS], French [fre, ASS], German [ger, ASS], Italian [ita, ASS], Russian [rus, ASS]
Additional Info
General
Unique ID                                : 248140400250049490880957260175016686310 (0xBAAE1A4C35E56644EBA9994C987F72E6)
Complete name                            : [Erai-raws] Tensei shitara Slime Datta Ken 2nd Season Part 2 - 11 [480p][Multiple Subtitle][A6628D84].mkv
Format                                   : Matroska
Format version                           : Version 4
File size                                : 360 MiB
Duration                                 : 23 min 42 s
Overall bit rate                         : 2 123 kb/s
Encoded date                             : UTC 2021-09-14 15:00:34
Writing application                      : mkvmerge v55.0.0 ('Waiting For Space') 64-bit
Writing library                          : libebml v1.4.2 + libmatroska v1.6.4
Attachments                              : arialbd.ttf / arialbi.ttf / Arial_0.ttf / ariblk_0.TTF / calibri.ttf / comicbd.ttf / comic_0.ttf / georgiab.ttf / georgiaz.ttf / georgia_0.ttf / impact_0.ttf / Tahoma_0.ttf / times_0.ttf / trebuc_0.ttf / verdana_0.ttf / AdobeArabic-Bold.otf / AdobeArabic-BoldItalic.otf / AdobeArabic-Italic.otf / AdobeArabic-Regular.otf

Video
ID                                       : 1
Format                                   : AVC
Format/Info                              : Advanced Video Codec
Format profile                           : Main@L3.1
Format settings                          : CABAC / 6 Ref Frames
Format settings, CABAC                   : Yes
Format settings, ReFrames                : 6 frames
Codec ID                                 : V_MPEG4/ISO/AVC
Duration                                 : 23 min 41 s
Bit rate                                 : 2 000 kb/s
Width                                    : 848 pixels
Height                                   : 480 pixels
Display aspect ratio                     : 16:9
Frame rate mode                          : Constant
Frame rate                               : 23.976 (24000/1001) FPS
Color space                              : YUV
Chroma subsampling                       : 4:2:0
Bit depth                                : 8 bits
Scan type                                : Progressive
Bits/(Pixel*Frame)                       : 0.205
Stream size                              : 336 MiB (93%)
Writing library                          : x264 core 142
Encoding settings                        : cabac=1 / ref=6 / deblock=1:1:1 / analyse=0x1:0x111 / me=umh / subme=8 / psy=1 / psy_rd=0.40:0.00 / mixed_ref=1 / me_range=16 / chroma_me=1 / trellis=1 / 8x8dct=0 / cqm=0 / deadzone=21,11 / fast_pskip=1 / chroma_qp_offset=-2 / threads=6 / lookahead_threads=1 / sliced_threads=0 / nr=0 / decimate=1 / interlaced=0 / bluray_compat=0 / constrained_intra=0 / bframes=0 / weightp=2 / keyint=96 / keyint_min=48 / scenecut=40 / intra_refresh=0 / rc_lookahead=48 / rc=2pass / mbtree=1 / bitrate=2000 / ratetol=1.0 / qcomp=0.60 / qpmin=0 / qpmax=69 / qpstep=4 / cplxblur=20.0 / qblur=0.5 / vbv_maxrate=3000 / vbv_bufsize=4500 / nal_hrd=none / filler=0 / ip_ratio=1.40 / aq=1:0.60
Language                                 : Japanese
Default                                  : Yes
Forced                                   : No

Audio
ID                                       : 2
Format                                   : AAC LC
Format/Info                              : Advanced Audio Codec Low Complexity
Codec ID                                 : A_AAC-2
Duration                                 : 23 min 42 s
Bit rate                                 : 96.0 kb/s
Channel(s)                               : 2 channels
Channel layout                           : L R
Sampling rate                            : 44.1 kHz
Frame rate                               : 43.066 FPS (1024 SPF)
Compression mode                         : Lossy
Stream size                              : 16.3 MiB (5%)
Language                                 : Japanese
Default                                  : Yes
Forced                                   : No

Text #1
ID                                       : 3
Format                                   : ASS
Codec ID                                 : S_TEXT/ASS
Codec ID/Info                            : Advanced Sub Station Alpha
Duration                                 : 23 min 23 s
Bit rate                                 : 146 b/s
Count of elements                        : 369
Compression mode                         : Lossless
Stream size                              : 25.1 KiB (0%)
Title                                    : English
Language                                 : English
Default                                  : Yes
Forced                                   : No

Text #2
ID                                       : 4
Format                                   : ASS
Codec ID                                 : S_TEXT/ASS
Codec ID/Info                            : Advanced Sub Station Alpha
Duration                                 : 23 min 23 s
Bit rate                                 : 152 b/s
Count of elements                        : 369
Compression mode                         : Lossless
Stream size                              : 26.1 KiB (0%)
Title                                    : Portuguese(Brazil)
Language                                 : Portuguese
Default                                  : No
Forced                                   : No

Text #3
ID                                       : 5
Format                                   : ASS
Codec ID                                 : S_TEXT/ASS
Codec ID/Info                            : Advanced Sub Station Alpha
Duration                                 : 22 min 9 s
Bit rate                                 : 133 b/s
Count of elements                        : 326
Compression mode                         : Lossless
Stream size                              : 21.6 KiB (0%)
Title                                    : Spanish(Latin_America)
Language                                 : Spanish
Default                                  : No
Forced                                   : No

Text #4
ID                                       : 6
Format                                   : ASS
Codec ID                                 : S_TEXT/ASS
Codec ID/Info                            : Advanced Sub Station Alpha
Duration                                 : 22 min 9 s
Bit rate                                 : 137 b/s
Count of elements                        : 330
Compression mode                         : Lossless
Stream size                              : 22.4 KiB (0%)
Title                                    : Spanish
Language                                 : Spanish
Default                                  : No
Forced                                   : No

Text #5
ID                                       : 7
Format                                   : ASS
Codec ID                                 : S_TEXT/ASS
Codec ID/Info                            : Advanced Sub Station Alpha
Duration                                 : 23 min 23 s
Bit rate                                 : 176 b/s
Count of elements                        : 369
Compression mode                         : Lossless
Stream size                              : 30.3 KiB (0%)
Title                                    : Arabic
Language                                 : Arabic
Default                                  : No
Forced                                   : No

Text #6
ID                                       : 8
Format                                   : ASS
Codec ID                                 : S_TEXT/ASS
Codec ID/Info                            : Advanced Sub Station Alpha
Duration                                 : 22 min 8 s
Bit rate                                 : 150 b/s
Count of elements                        : 333
Compression mode                         : Lossless
Stream size                              : 24.5 KiB (0%)
Title                                    : French
Language                                 : French
Default                                  : No
Forced                                   : No

Text #7
ID                                       : 9
Format                                   : ASS
Codec ID                                 : S_TEXT/ASS
Codec ID/Info                            : Advanced Sub Station Alpha
Duration                                 : 23 min 23 s
Bit rate                                 : 197 b/s
Count of elements                        : 401
Compression mode                         : Lossless
Stream size                              : 33.9 KiB (0%)
Title                                    : German
Language                                 : German
Default                                  : No
Forced                                   : No

Text #8
ID                                       : 10
Format                                   : ASS
Codec ID                                 : S_TEXT/ASS
Codec ID/Info                            : Advanced Sub Station Alpha
Duration                                 : 23 min 23 s
Bit rate                                 : 183 b/s
Count of elements                        : 408
Compression mode                         : Lossless
Stream size                              : 31.4 KiB (0%)
Title                                    : Italian
Language                                 : Italian
Default                                  : No
Forced                                   : No

Text #9
ID                                       : 11
Format                                   : ASS
Codec ID                                 : S_TEXT/ASS
Codec ID/Info                            : Advanced Sub Station Alpha
Duration                                 : 23 min 23 s
Bit rate                                 : 235 b/s
Count of elements                        : 368
Compression mode                         : Lossless
Stream size                              : 40.3 KiB (0%)
Title                                    : Russian
Language                                 : Russian
Default                                  : No
Forced                                   : No
beta
Anime DDL+NZB mirror
Current Time: 19/10/2021 12:24



About/FAQs

Discord