File Size901.3 MB (945,029,204 bytes)
DownloadClickNUpload | Jheberg | MultiUp | OpenLoad
Sendspace: Part1, Part2, Part3, Part4
ZippyShare: Part1, Part2
Encrypted DownloadDirect
Password:
HashesCRC32: 511D9FCD, MD5: 18A64A751EA9762AC5415D1BFEF10704, SHA1: 6E50799DB1C73675ED40DA4632C8E3581172DB32, SHA256: 22F5AD3BDAC97A414A9DCDBEF9DAF3F6FEE815D728BF87400D96BCE5C039632B, ED2K: DDC037D56A62AAFBD8502779A0340F33
Screenshots
screenshotscreenshotscreenshotscreenshotscreenshot
SubtitlesAll Attachments | eng [ASS], por [ASS], spa [ASS]
Additional Info
General
Unique ID                                : 316151946069929467045117500315827788387 (0xEDD8A665D36406E8B52E0079FD5D5A63)
Complete name                            : [Erai-raws] Release the Spyce - 10 [1080p][Multiple Subtitle].mkv
Format                                   : Matroska
Format version                           : Version 4 / Version 2
File size                                : 901 MiB
Duration                                 : 24 min 32 s
Overall bit rate                         : 5 136 kb/s
Encoded date                             : UTC 2018-12-19 05:30:48
Writing application                      : mkvmerge v27.0.0 ('Metropolis') 64-bit
Writing library                          : libebml v1.3.6 + libmatroska v1.4.9

Video
ID                                       : 4
Format                                   : AVC
Format/Info                              : Advanced Video Codec
Format profile                           : High@L4
Format settings, CABAC                   : Yes
Format settings, ReFrames                : 4 frames
Format settings, GOP                     : M=4, N=30
Codec ID                                 : V_MPEG4/ISO/AVC
Duration                                 : 24 min 32 s
Bit rate                                 : 5 005 kb/s
Width                                    : 1 920 pixels
Height                                   : 1 080 pixels
Display aspect ratio                     : 16:9
Frame rate mode                          : Constant
Frame rate                               : 30.000 FPS
Color space                              : YUV
Chroma subsampling                       : 4:2:0
Bit depth                                : 8 bits
Scan type                                : Progressive
Bits/(Pixel*Frame)                       : 0.080
Stream size                              : 878 MiB (97%)
Writing library                          : Zencoder Video Encoding System
Default                                  : Yes
Forced                                   : No
Color range                              : Limited
Color primaries                          : BT.709
Transfer characteristics                 : BT.709
Matrix coefficients                      : BT.709

Audio
ID                                       : 5
Format                                   : AAC
Format/Info                              : Advanced Audio Codec
Format profile                           : LC
Codec ID                                 : A_AAC
Duration                                 : 24 min 32 s
Bit rate                                 : 128 kb/s
Channel(s)                               : 2 channels
Channel positions                        : Front: L R
Sampling rate                            : 48.0 kHz
Frame rate                               : 46.875 FPS (1024 spf)
Compression mode                         : Lossy
Delay relative to video                  : -109 ms
Stream size                              : 22.4 MiB (2%)
Default                                  : Yes
Forced                                   : No

Text #1
ID                                       : 1
Format                                   : ASS
Codec ID                                 : S_TEXT/ASS
Codec ID/Info                            : Advanced Sub Station Alpha
Duration                                 : 24 min 24 s
Bit rate                                 : 141 b/s
Count of elements                        : 413
Compression mode                         : Lossless
Stream size                              : 25.3 KiB (0%)
Language                                 : English
Default                                  : Yes
Forced                                   : No

Text #2
ID                                       : 2
Format                                   : ASS
Codec ID                                 : S_TEXT/ASS
Codec ID/Info                            : Advanced Sub Station Alpha
Duration                                 : 24 min 24 s
Bit rate                                 : 130 b/s
Count of elements                        : 411
Compression mode                         : Lossless
Stream size                              : 23.3 KiB (0%)
Language                                 : Portuguese
Default                                  : No
Forced                                   : No

Text #3
ID                                       : 3
Format                                   : ASS
Codec ID                                 : S_TEXT/ASS
Codec ID/Info                            : Advanced Sub Station Alpha
Duration                                 : 24 min 24 s
Bit rate                                 : 124 b/s
Count of elements                        : 412
Compression mode                         : Lossless
Stream size                              : 22.2 KiB (0%)
Language                                 : Spanish
Default                                  : No
Forced                                   : No
beta
Anime DDL+NZB mirror
Current Time: 12/12/2019 19:55



About/FAQs