File Size550.0 MB (576,719,427 bytes)
DownloadClickNUpload | Go4Up | Jheberg | MultiUp | OpenLoad
Sendspace: Part1, Part2
SolidFiles: Part1, Part2
ZippyShare: Part1, Part2
Encrypted DownloadDirect
Password:
HashesCRC32: 822C4786, MD5: 801D396DFFB70D622C99CC22346F7C35, SHA1: 61E3119D3B1002F04CA18455805118742790ABC2, SHA256: C2A5C82C2D683EA18969CEBD74603C204FAE89F7551ACD7175DD91590CBDDE76, ED2K: 5D151DF81BCDEA0C2552257E09D75E65
Screenshots
screenshotscreenshotscreenshotscreenshotscreenshot
SubtitlesAll Attachments | eng [ASS], por [ASS], spa [ASS]
Additional Info
General
Unique ID                                : 60263726023937328557641868339736118475 (0x2D565F176968507A6CDCA6D5C11E84CB)
Complete name                            : [Erai-raws] Release the Spyce - 08 [720p][Multiple Subtitle].mkv
Format                                   : Matroska
Format version                           : Version 4 / Version 2
File size                                : 550 MiB
Duration                                 : 24 min 32 s
Overall bit rate                         : 3 134 kb/s
Encoded date                             : UTC 2018-12-02 19:30:04
Writing application                      : mkvmerge v27.0.0 ('Metropolis') 64-bit
Writing library                          : libebml v1.3.6 + libmatroska v1.4.9

Video
ID                                       : 4
Format                                   : AVC
Format/Info                              : Advanced Video Codec
Format profile                           : Main@L3.1
Format settings, CABAC                   : Yes
Format settings, ReFrames                : 4 frames
Codec ID                                 : V_MPEG4/ISO/AVC
Duration                                 : 24 min 32 s
Bit rate                                 : 3 003 kb/s
Width                                    : 1 280 pixels
Height                                   : 720 pixels
Display aspect ratio                     : 16:9
Frame rate mode                          : Constant
Frame rate                               : 30.000 FPS
Color space                              : YUV
Chroma subsampling                       : 4:2:0
Bit depth                                : 8 bits
Scan type                                : Progressive
Bits/(Pixel*Frame)                       : 0.109
Stream size                              : 527 MiB (96%)
Writing library                          : Zencoder Video Encoding System
Default                                  : Yes
Forced                                   : No
Color range                              : Limited
Color primaries                          : BT.709
Transfer characteristics                 : BT.709
Matrix coefficients                      : BT.709

Audio
ID                                       : 5
Format                                   : AAC
Format/Info                              : Advanced Audio Codec
Format profile                           : LC
Codec ID                                 : A_AAC
Duration                                 : 24 min 32 s
Bit rate                                 : 128 kb/s
Channel(s)                               : 2 channels
Channel positions                        : Front: L R
Sampling rate                            : 48.0 kHz
Frame rate                               : 46.875 FPS (1024 spf)
Compression mode                         : Lossy
Delay relative to video                  : -109 ms
Stream size                              : 22.4 MiB (4%)
Default                                  : Yes
Forced                                   : No

Text #1
ID                                       : 1
Format                                   : ASS
Codec ID                                 : S_TEXT/ASS
Codec ID/Info                            : Advanced Sub Station Alpha
Duration                                 : 24 min 22 s
Bit rate                                 : 133 b/s
Count of elements                        : 392
Compression mode                         : Lossless
Stream size                              : 23.9 KiB (0%)
Language                                 : English
Default                                  : Yes
Forced                                   : No

Text #2
ID                                       : 2
Format                                   : ASS
Codec ID                                 : S_TEXT/ASS
Codec ID/Info                            : Advanced Sub Station Alpha
Duration                                 : 24 min 22 s
Bit rate                                 : 122 b/s
Count of elements                        : 392
Compression mode                         : Lossless
Stream size                              : 21.8 KiB (0%)
Language                                 : Portuguese
Default                                  : No
Forced                                   : No

Text #3
ID                                       : 3
Format                                   : ASS
Codec ID                                 : S_TEXT/ASS
Codec ID/Info                            : Advanced Sub Station Alpha
Duration                                 : 24 min 22 s
Bit rate                                 : 117 b/s
Count of elements                        : 392
Compression mode                         : Lossless
Stream size                              : 21.0 KiB (0%)
Language                                 : Spanish
Default                                  : No
Forced                                   : No
beta
Anime DDL+NZB mirror
Current Time: 19/10/2019 18:33



About/FAQs