[Erai-raws] Piano no Mori (TV) 2nd Season - 11 [1080p].mkv


File Size1.031 GB (1,106,783,109 bytes)
DownloadJheberg
ClickNUpload: Part1, Part2
MultiUp: Part1
  • BdUpload
  • DownAce
  • Fichier
  • FileCloud
  • Filerio
  • FilesCdn
  • IndiShare
  • Kbagi
  • Solidfiles
  • Turbobit
  • UpToBox
  • Uppit
, Part2
  • BdUpload
  • DownAce
  • Fichier
  • FileCloud
  • Filerio
  • FilesCdn
  • IndiShare
  • Kbagi
  • Solidfiles
  • Turbobit
  • UpToBox
  • Uppit
, Part3
  • BdUpload
  • DownAce
  • Fichier
  • FileCloud
  • Filerio
  • FilesCdn
  • IndiShare
  • Kbagi
  • Solidfiles
  • Turbobit
  • UpToBox
  • Uppit

OpenLoad: Part1, Part2
Sendspace: Part1, Part2, Part3, Part4
ZippyShare: Part1, Part2, Part3
HashesCRC32: D413346A, MD5: 05D7B62FC3CC8033CFF7946B262975F1, SHA1: 097E4C559FE90668CAD9D15D16C46307B02D1451, SHA256: 679D6E3370E13B2DFAF0C04F2DEEAB905E173CBDC028C1BF322BF1EA7344187A, ED2K: 1419BFC628E3E7989C092E624BE8B6B4
Screenshots
screenshotscreenshotscreenshotscreenshotscreenshot
SubtitlesAll Attachments | jpn [ASS]
Additional Info
General
Unique ID                                : 123855194151168091455752234342361747558 (0x5D2DA48930CD64776EF0DE43C1EE5066)
Complete name                            : [Erai-raws] Piano no Mori (TV) 2nd Season - 11 [1080p].mkv
Format                                   : Matroska
Format version                           : Version 4
File size                                : 1.03 GiB
Duration                                 : 25 min 2 s
Overall bit rate mode                    : Variable
Overall bit rate                         : 5 895 kb/s
Encoded date                             : UTC 2019-04-14 18:59:29
Writing application                      : mkvmerge v32.0.0 ('Astral Progressions') 64-bit
Writing library                          : libebml v1.3.7 + libmatroska v1.5.0

Video
ID                                       : 1
Format                                   : AVC
Format/Info                              : Advanced Video Codec
Format profile                           : Main@L4
Format settings                          : CABAC / 3 Ref Frames
Format settings, CABAC                   : Yes
Format settings, ReFrames                : 3 frames
Codec ID                                 : V_MPEG4/ISO/AVC
Duration                                 : 25 min 2 s
Bit rate mode                            : Variable
Bit rate                                 : 5 800 kb/s
Maximum bit rate                         : 8 700 kb/s
Width                                    : 1 920 pixels
Height                                   : 1 080 pixels
Display aspect ratio                     : 16:9
Frame rate mode                          : Constant
Frame rate                               : 23.976 (24000/1001) FPS
Color space                              : YUV
Chroma subsampling                       : 4:2:0
Bit depth                                : 8 bits
Scan type                                : Progressive
Bits/(Pixel*Frame)                       : 0.117
Stream size                              : 1.01 GiB (98%)
Writing library                          : x264 core 148 r2715 7e75228
Encoding settings                        : cabac=1 / ref=3 / deblock=1:0:0 / analyse=0x1:0x111 / me=umh / subme=10 / psy=1 / psy_rd=1.00:0.00 / mixed_ref=1 / me_range=24 / chroma_me=1 / trellis=2 / 8x8dct=0 / cqm=0 / deadzone=21,11 / fast_pskip=1 / chroma_qp_offset=-2 / threads=8 / lookahead_threads=1 / sliced_threads=0 / nr=0 / decimate=1 / interlaced=0 / bluray_compat=0 / stitchable=1 / constrained_intra=0 / bframes=2 / b_pyramid=0 / b_adapt=2 / b_bias=0 / direct=3 / weightb=1 / open_gop=0 / weightp=2 / keyint=48 / keyint_min=25 / scenecut=0 / intra_refresh=0 / rc_lookahead=48 / rc=2pass / mbtree=1 / bitrate=5800 / ratetol=1.0 / qcomp=0.50 / qpmin=6 / qpmax=51 / qpstep=4 / cplxblur=20.0 / qblur=0.5 / vbv_maxrate=8700 / vbv_bufsize=11600 / nal_hrd=vbr / filler=0 / ip_ratio=1.40 / aq=1:1.00
Language                                 : Japanese
Default                                  : Yes
Forced                                   : No

Audio
ID                                       : 2
Format                                   : E-AC-3
Format/Info                              : Enhanced AC-3
Commercial name                          : Dolby Digital Plus
Codec ID                                 : A_EAC3
Duration                                 : 25 min 2 s
Bit rate mode                            : Constant
Bit rate                                 : 128 kb/s
Channel(s)                               : 2 channels
Channel layout                           : L R
Sampling rate                            : 48.0 kHz
Frame rate                               : 31.250 FPS (1536 SPF)
Compression mode                         : Lossy
Stream size                              : 22.9 MiB (2%)
Language                                 : Japanese
Service kind                             : Complete Main
Default                                  : Yes
Forced                                   : No

Text
ID                                       : 3
Format                                   : ASS
Codec ID                                 : S_TEXT/ASS
Codec ID/Info                            : Advanced Sub Station Alpha
Duration                                 : 24 min 44 s
Bit rate                                 : 116 b/s
Count of elements                        : 322
Compression mode                         : Lossless
Stream size                              : 21.2 KiB (0%)
Language                                 : Japanese
Default                                  : Yes
Forced                                   : No
beta
Anime DDL+NZB mirror
Current Time: 22/10/2019 20:19



About/FAQs