[Erai-raws] Net-juu no Susume - Ova [1080p][Multiple Subtitle].mkv


File Size880.2 MB (922,986,419 bytes)
DownloadClickNUpload | Jheberg | MultiUp | OpenLoad | Upfile.mobi
Sendspace: Part1, Part2, Part3
SolidFiles: Part1, Part2
HashesCRC32: 320021C0, MD5: D854A42755101132F283B29C2DF25F58, SHA1: 5CF49827AB390A2136D37D576CC5E970BBFAE697, SHA256: BE110F97D3F8AF91D081C9988313D8C8FEE5712AC6FC75001CB1954CACD68B91, ED2K: FE818511D16B50B6D29E0F4F5FF64192
Screenshots
screenshotscreenshotscreenshotscreenshotscreenshot
SubtitlesAll Attachments | English(US) [eng, ASS], Arabic [ara, ASS], Deutsch [ger, ASS], Italiano [ita, ASS], Portuguأھs(Brasil) [por, ASS]
Additional Info
General
Unique ID                                : 209119478228230118796763933729229123826 (0x9D52F24E4FBCEC959EB8F655C15430F2)
Complete name                            : [Erai-raws] Net-juu no Susume - Ova [1080p][Multiple Subtitle].mkv
Format                                   : Matroska
Format version                           : Version 4 / Version 2
File size                                : 880 MiB
Duration                                 : 24 min 9 s
Overall bit rate                         : 5 093 kb/s
Encoded date                             : UTC 2017-12-15 16:04:54
Writing application                      : mkvmerge v12.0.0 ('Trust / Lust') 64bit
Writing library                          : libebml v1.3.4 + libmatroska v1.4.5

Video
ID                                       : 1
Format                                   : AVC
Format/Info                              : Advanced Video Codec
Format profile                           : High@L4
Format settings, CABAC                   : Yes
Format settings, ReFrames                : 4 frames
Codec ID                                 : V_MPEG4/ISO/AVC
Duration                                 : 24 min 9 s
Bit rate                                 : 4 962 kb/s
Width                                    : 1 920 pixels
Height                                   : 1 080 pixels
Display aspect ratio                     : 16:9
Frame rate mode                          : Constant
Frame rate                               : 23.976 (24000/1001) FPS
Color space                              : YUV
Chroma subsampling                       : 4:2:0
Bit depth                                : 8 bits
Scan type                                : Progressive
Bits/(Pixel*Frame)                       : 0.100
Stream size                              : 858 MiB (97%)
Writing library                          : x264 core 142
Encoding settings                        : cabac=1 / ref=4 / deblock=1:1:1 / analyse=0x3:0x113 / me=umh / subme=8 / psy=1 / psy_rd=0.40:0.00 / mixed_ref=1 / me_range=16 / chroma_me=1 / trellis=1 / 8x8dct=1 / cqm=0 / deadzone=21,11 / fast_pskip=1 / chroma_qp_offset=-2 / threads=12 / lookahead_threads=2 / sliced_threads=0 / nr=0 / decimate=1 / interlaced=0 / bluray_compat=0 / constrained_intra=0 / bframes=3 / b_pyramid=2 / b_adapt=2 / b_bias=0 / direct=3 / weightb=1 / open_gop=0 / weightp=2 / keyint=48 / keyint_min=24 / scenecut=40 / intra_refresh=0 / rc_lookahead=48 / rc=crf / mbtree=1 / crf=15.0 / qcomp=0.60 / qpmin=0 / qpmax=69 / qpstep=4 / vbv_maxrate=8000 / vbv_bufsize=12000 / crf_max=0.0 / nal_hrd=none / filler=0 / ip_ratio=1.40 / aq=1:0.60
Default                                  : Yes
Forced                                   : No

Audio
ID                                       : 2
Format                                   : AAC
Format/Info                              : Advanced Audio Codec
Format profile                           : LC
Codec ID                                 : A_AAC
Duration                                 : 24 min 9 s
Bit rate                                 : 128 kb/s
Channel(s)                               : 2 channels
Channel positions                        : Front: L R
Sampling rate                            : 44.1 kHz
Frame rate                               : 43.066 FPS (1024 spf)
Compression mode                         : Lossy
Delay relative to video                  : -83 ms
Stream size                              : 22.1 MiB (3%)
Default                                  : Yes
Forced                                   : No

Text #1
ID                                       : 3
Format                                   : ASS
Codec ID                                 : S_TEXT/ASS
Codec ID/Info                            : Advanced Sub Station Alpha
Duration                                 : 20 min 49 s
Bit rate                                 : 147 b/s
Count of elements                        : 326
Compression mode                         : Lossless
Stream size                              : 22.4 KiB (0%)
Title                                    : English(US)
Language                                 : English
Default                                  : Yes
Forced                                   : No

Text #2
ID                                       : 4
Format                                   : ASS
Codec ID                                 : S_TEXT/ASS
Codec ID/Info                            : Advanced Sub Station Alpha
Duration                                 : 20 min 49 s
Bit rate                                 : 172 b/s
Count of elements                        : 326
Compression mode                         : Lossless
Stream size                              : 26.3 KiB (0%)
Title                                    : Arabic
Language                                 : Arabic
Default                                  : No
Forced                                   : No

Text #3
ID                                       : 5
Format                                   : ASS
Codec ID                                 : S_TEXT/ASS
Codec ID/Info                            : Advanced Sub Station Alpha
Duration                                 : 20 min 49 s
Bit rate                                 : 156 b/s
Count of elements                        : 367
Compression mode                         : Lossless
Stream size                              : 23.9 KiB (0%)
Title                                    : Deutsch
Language                                 : German
Default                                  : No
Forced                                   : No

Text #4
ID                                       : 6
Format                                   : ASS
Codec ID                                 : S_TEXT/ASS
Codec ID/Info                            : Advanced Sub Station Alpha
Duration                                 : 20 min 49 s
Bit rate                                 : 147 b/s
Count of elements                        : 331
Compression mode                         : Lossless
Stream size                              : 22.5 KiB (0%)
Title                                    : Italiano
Language                                 : Italian
Default                                  : No
Forced                                   : No

Text #5
ID                                       : 7
Format                                   : ASS
Codec ID                                 : S_TEXT/ASS
Codec ID/Info                            : Advanced Sub Station Alpha
Duration                                 : 20 min 49 s
Bit rate                                 : 143 b/s
Count of elements                        : 326
Compression mode                         : Lossless
Stream size                              : 21.8 KiB (0%)
Title                                    : Portuguأھs(Brasil)
Language                                 : Portuguese
Default                                  : No
Forced                                   : No
beta
Anime DDL+NZB mirror
Current Time: 25/05/2024 21:26



About/FAQs

Discord