File Size805.0 MB (844,116,773 bytes)
DownloadClickNUpload | Jheberg | MultiUp
  • ClickNupload
  • Fichier
  • Filerio
  • Free
  • Fufox
  • HugeFiles
  • Mightyupload
  • ToutBox
  • Turbobit
  • UpToBox
  • Uplea
  • UploadBaz
  • Uploadable
  • Uploaded
  • Uppit
  • Userscloud
| OpenLoad
Sendspace: Part1, Part2, Part3
SolidFiles: Part1, Part2
HashesCRC32: 4802EF11, MD5: 1AD610B3C09269AFB7760D42396B2840, SHA1: 4999883F25BCC4C6E8D54DB4F7DA9436FF9387CC, SHA256: 8AA2AE28F6EB669D5DB487E9B6BD1F0B7BE37F83F4028BAF0080B26FE582CEB5, ED2K: F73DC8A82EBBA24D1B1E70F980A82F69
Screenshots
screenshotscreenshotscreenshotscreenshotscreenshot
SubtitlesAll Attachments | English(US) [und, ASS], Arabic [und, ASS], Deutsch [und, ASS], Espaأ±ol(Espaأ±a) [und, ASS], Espaأ±ol [und, ASS], Franأ§ais(France) [und, ASS], Italiano [und, ASS], Portuguأھs(Brasil) [und, ASS]
Additional Info
General
Unique ID                                : 179561956993138272805381486360493881161 (0x87165FFEFD6487228EAF89367558F749)
Complete name                            : [Erai-raws] Net-juu no Susume - 06 [1080p][Multiple Subtitle].mkv
Format                                   : Matroska
Format version                           : Version 4 / Version 2
File size                                : 805 MiB
Duration                                 : 23 min 40 s
Overall bit rate                         : 4 755 kb/s
Encoded date                             : UTC 2017-11-10 16:04:55
Writing application                      : mkvmerge v12.0.0 ('Trust / Lust') 64bit
Writing library                          : libebml v1.3.4 + libmatroska v1.4.5

Video
ID                                       : 1
Format                                   : AVC
Format/Info                              : Advanced Video Codec
Format profile                           : High@L4
Format settings, CABAC                   : Yes
Format settings, ReFrames                : 4 frames
Codec ID                                 : V_MPEG4/ISO/AVC
Duration                                 : 23 min 40 s
Bit rate                                 : 4 623 kb/s
Width                                    : 1 920 pixels
Height                                   : 1 080 pixels
Display aspect ratio                     : 16:9
Frame rate mode                          : Constant
Frame rate                               : 23.976 (24000/1001) FPS
Color space                              : YUV
Chroma subsampling                       : 4:2:0
Bit depth                                : 8 bits
Scan type                                : Progressive
Bits/(Pixel*Frame)                       : 0.093
Stream size                              : 783 MiB (97%)
Writing library                          : x264 core 142
Encoding settings                        : cabac=1 / ref=4 / deblock=1:1:1 / analyse=0x3:0x113 / me=umh / subme=8 / psy=1 / psy_rd=0.40:0.00 / mixed_ref=1 / me_range=16 / chroma_me=1 / trellis=1 / 8x8dct=1 / cqm=0 / deadzone=21,11 / fast_pskip=1 / chroma_qp_offset=-2 / threads=12 / lookahead_threads=2 / sliced_threads=0 / nr=0 / decimate=1 / interlaced=0 / bluray_compat=0 / constrained_intra=0 / bframes=3 / b_pyramid=2 / b_adapt=2 / b_bias=0 / direct=3 / weightb=1 / open_gop=0 / weightp=2 / keyint=48 / keyint_min=24 / scenecut=40 / intra_refresh=0 / rc_lookahead=48 / rc=crf / mbtree=1 / crf=15.0 / qcomp=0.60 / qpmin=0 / qpmax=69 / qpstep=4 / vbv_maxrate=8000 / vbv_bufsize=12000 / crf_max=0.0 / nal_hrd=none / filler=0 / ip_ratio=1.40 / aq=1:0.60
Default                                  : Yes
Forced                                   : No

Audio
ID                                       : 2
Format                                   : AAC
Format/Info                              : Advanced Audio Codec
Format profile                           : LC
Codec ID                                 : A_AAC
Duration                                 : 23 min 40 s
Bit rate                                 : 128 kb/s
Channel(s)                               : 2 channels
Channel positions                        : Front: L R
Sampling rate                            : 44.1 kHz
Frame rate                               : 43.066 FPS (1024 spf)
Compression mode                         : Lossy
Delay relative to video                  : -83 ms
Stream size                              : 21.7 MiB (3%)
Default                                  : Yes
Forced                                   : No

Text #1
ID                                       : 3
Format                                   : ASS
Codec ID                                 : S_TEXT/ASS
Codec ID/Info                            : Advanced Sub Station Alpha
Duration                                 : 22 min 2 s
Bit rate                                 : 165 b/s
Count of elements                        : 363
Compression mode                         : Lossless
Stream size                              : 26.7 KiB (0%)
Title                                    : English(US)
Default                                  : Yes
Forced                                   : No

Text #2
ID                                       : 4
Format                                   : ASS
Codec ID                                 : S_TEXT/ASS
Codec ID/Info                            : Advanced Sub Station Alpha
Duration                                 : 22 min 2 s
Bit rate                                 : 187 b/s
Count of elements                        : 356
Compression mode                         : Lossless
Stream size                              : 30.2 KiB (0%)
Title                                    : Arabic
Default                                  : No
Forced                                   : No

Text #3
ID                                       : 5
Format                                   : ASS
Codec ID                                 : S_TEXT/ASS
Codec ID/Info                            : Advanced Sub Station Alpha
Duration                                 : 22 min 2 s
Bit rate                                 : 153 b/s
Count of elements                        : 375
Compression mode                         : Lossless
Stream size                              : 24.8 KiB (0%)
Title                                    : Deutsch
Default                                  : No
Forced                                   : No

Text #4
ID                                       : 6
Format                                   : ASS
Codec ID                                 : S_TEXT/ASS
Codec ID/Info                            : Advanced Sub Station Alpha
Duration                                 : 22 min 2 s
Bit rate                                 : 123 b/s
Count of elements                        : 335
Compression mode                         : Lossless
Stream size                              : 19.9 KiB (0%)
Title                                    : Espaأ±ol(Espaأ±a)
Default                                  : No
Forced                                   : No

Text #5
ID                                       : 7
Format                                   : ASS
Codec ID                                 : S_TEXT/ASS
Codec ID/Info                            : Advanced Sub Station Alpha
Duration                                 : 22 min 2 s
Bit rate                                 : 123 b/s
Count of elements                        : 335
Compression mode                         : Lossless
Stream size                              : 19.9 KiB (0%)
Title                                    : Espaأ±ol
Default                                  : No
Forced                                   : No

Text #6
ID                                       : 8
Format                                   : ASS
Codec ID                                 : S_TEXT/ASS
Codec ID/Info                            : Advanced Sub Station Alpha
Duration                                 : 22 min 1 s
Bit rate                                 : 135 b/s
Count of elements                        : 333
Compression mode                         : Lossless
Stream size                              : 21.8 KiB (0%)
Title                                    : Franأ§ais(France)
Default                                  : No
Forced                                   : No

Text #7
ID                                       : 9
Format                                   : ASS
Codec ID                                 : S_TEXT/ASS
Codec ID/Info                            : Advanced Sub Station Alpha
Duration                                 : 22 min 2 s
Bit rate                                 : 167 b/s
Count of elements                        : 373
Compression mode                         : Lossless
Stream size                              : 27.0 KiB (0%)
Title                                    : Italiano
Default                                  : No
Forced                                   : No

Text #8
ID                                       : 10
Format                                   : ASS
Codec ID                                 : S_TEXT/ASS
Codec ID/Info                            : Advanced Sub Station Alpha
Duration                                 : 22 min 2 s
Bit rate                                 : 164 b/s
Count of elements                        : 356
Compression mode                         : Lossless
Stream size                              : 26.5 KiB (0%)
Title                                    : Portuguأھs(Brasil)
Default                                  : No
Forced                                   : No
beta
Anime DDL+NZB mirror
Current Time: 19/11/2017 18:02



About/FAQs