File Size441.6 MB (463,047,167 bytes)
DownloadClickNUpload | Go4Up | Jheberg | MultiUp
  • ClickNupload
  • Fichier
  • Filerio
  • Free
  • Fufox
  • HugeFiles
  • Mightyupload
  • ToutBox
  • Turbobit
  • UpToBox
  • Uplea
  • UploadBaz
  • Uploadable
  • Uploaded
  • Uppit
  • Userscloud
| OpenLoad | SolidFiles
Sendspace: Part1, Part2
Encrypted DownloadDirect
Password:
HashesCRC32: 2D6328DE, MD5: 0AD39569C898F6B7BF890DF289208B4F, SHA1: B9951CA7FF34F2AC2143F36EEC15BE367759A00A, SHA256: FE4B799EEF8AD22CC5389FA4E060F7C06ED174ADD0EFEC4F72D39E48A00F2780, ED2K: 06F0A0C35774D46FC75234DF5E752EEA
Screenshots
screenshotscreenshotscreenshotscreenshotscreenshot
SubtitlesAll Attachments | eng [ASS], ger [ASS], spa [ASS], spa [ASS], fre [ASS], ita [ASS], por [ASS], ara [ASS]
Additional Info
General
Unique ID                                : 180339060735904766844731262001212421631 (0x87AC0A2B2E6B5DEA82F943AA0C71F5FF)
Complete name                            : [Erai-raws] Mob Psycho 100 - 06  [1080p][2D6328DE].mkv
Format                                   : Matroska
Format version                           : Version 4 / Version 2
File size                                : 442 MiB
Duration                                 : 24 min 12 s
Overall bit rate                         : 2 551 kb/s
Encoded date                             : UTC 2017-07-27 22:28:19
Writing application                      : mkvmerge v13.0.0 ('The Juggler') 64bit
Writing library                          : libebml v1.3.4 + libmatroska v1.4.5

Video
ID                                       : 1
Format                                   : AVC
Format/Info                              : Advanced Video Codec
Format profile                           : High@L4
Format settings, CABAC                   : Yes
Format settings, ReFrames                : 4 frames
Codec ID                                 : V_MPEG4/ISO/AVC
Duration                                 : 24 min 11 s
Bit rate                                 : 2 421 kb/s
Width                                    : 1 920 pixels
Height                                   : 1 080 pixels
Display aspect ratio                     : 16:9
Frame rate mode                          : Constant
Frame rate                               : 23.976 (24000/1001) FPS
Color space                              : YUV
Chroma subsampling                       : 4:2:0
Bit depth                                : 8 bits
Scan type                                : Progressive
Bits/(Pixel*Frame)                       : 0.049
Stream size                              : 419 MiB (95%)
Writing library                          : x264 core 142
Encoding settings                        : cabac=1 / ref=4 / deblock=1:1:1 / analyse=0x3:0x113 / me=hex / subme=6 / psy=1 / psy_rd=0.40:0.00 / mixed_ref=1 / me_range=16 / chroma_me=1 / trellis=1 / 8x8dct=1 / cqm=0 / deadzone=21,11 / fast_pskip=1 / chroma_qp_offset=-2 / threads=1 / lookahead_threads=1 / sliced_threads=0 / nr=0 / decimate=1 / interlaced=0 / bluray_compat=0 / constrained_intra=0 / bframes=5 / b_pyramid=2 / b_adapt=1 / b_bias=0 / direct=1 / weightb=1 / open_gop=0 / weightp=1 / keyint=48 / keyint_min=24 / scenecut=40 / intra_refresh=0 / rc_lookahead=30 / rc=crf / mbtree=1 / crf=21.2 / qcomp=0.60 / qpmin=0 / qpmax=69 / qpstep=4 / vbv_maxrate=8000 / vbv_bufsize=12000 / crf_max=0.0 / nal_hrd=none / filler=0 / ip_ratio=1.40 / aq=1:0.60
Default                                  : Yes
Forced                                   : No

Audio
ID                                       : 2
Format                                   : AAC
Format/Info                              : Advanced Audio Codec
Format profile                           : LC
Codec ID                                 : A_AAC
Duration                                 : 24 min 12 s
Bit rate                                 : 126 kb/s
Channel(s)                               : 2 channels
Channel positions                        : Front: L R
Sampling rate                            : 44.1 kHz
Frame rate                               : 43.066 FPS (1024 spf)
Compression mode                         : Lossy
Delay relative to video                  : -83 ms
Stream size                              : 21.7 MiB (5%)
Default                                  : Yes
Forced                                   : No

Text #1
ID                                       : 3
Format                                   : ASS
Codec ID                                 : S_TEXT/ASS
Codec ID/Info                            : Advanced Sub Station Alpha
Duration                                 : 24 min 7 s
Bit rate                                 : 160 b/s
Count of elements                        : 428
Compression mode                         : Lossless
Stream size                              : 28.4 KiB (0%)
Language                                 : English
Default                                  : Yes
Forced                                   : No

Text #2
ID                                       : 4
Format                                   : ASS
Codec ID                                 : S_TEXT/ASS
Codec ID/Info                            : Advanced Sub Station Alpha
Duration                                 : 24 min 6 s
Bit rate                                 : 168 b/s
Count of elements                        : 485
Compression mode                         : Lossless
Stream size                              : 29.8 KiB (0%)
Language                                 : German
Default                                  : No
Forced                                   : No

Text #3
ID                                       : 5
Format                                   : ASS
Codec ID                                 : S_TEXT/ASS
Codec ID/Info                            : Advanced Sub Station Alpha
Duration                                 : 24 min 7 s
Bit rate                                 : 145 b/s
Count of elements                        : 409
Compression mode                         : Lossless
Stream size                              : 25.6 KiB (0%)
Language                                 : Spanish
Default                                  : No
Forced                                   : No

Text #4
ID                                       : 6
Format                                   : ASS
Codec ID                                 : S_TEXT/ASS
Codec ID/Info                            : Advanced Sub Station Alpha
Duration                                 : 24 min 7 s
Bit rate                                 : 145 b/s
Count of elements                        : 410
Compression mode                         : Lossless
Stream size                              : 25.7 KiB (0%)
Language                                 : Spanish
Default                                  : No
Forced                                   : No

Text #5
ID                                       : 7
Format                                   : ASS
Codec ID                                 : S_TEXT/ASS
Codec ID/Info                            : Advanced Sub Station Alpha
Duration                                 : 24 min 6 s
Bit rate                                 : 160 b/s
Count of elements                        : 416
Compression mode                         : Lossless
Stream size                              : 28.3 KiB (0%)
Language                                 : French
Default                                  : No
Forced                                   : No

Text #6
ID                                       : 8
Format                                   : ASS
Codec ID                                 : S_TEXT/ASS
Codec ID/Info                            : Advanced Sub Station Alpha
Duration                                 : 24 min 7 s
Bit rate                                 : 169 b/s
Count of elements                        : 426
Compression mode                         : Lossless
Stream size                              : 30.0 KiB (0%)
Language                                 : Italian
Default                                  : No
Forced                                   : No

Text #7
ID                                       : 9
Format                                   : ASS
Codec ID                                 : S_TEXT/ASS
Codec ID/Info                            : Advanced Sub Station Alpha
Duration                                 : 24 min 7 s
Bit rate                                 : 163 b/s
Count of elements                        : 422
Compression mode                         : Lossless
Stream size                              : 28.9 KiB (0%)
Language                                 : Portuguese
Default                                  : No
Forced                                   : No

Text #8
ID                                       : 10
Format                                   : ASS
Codec ID                                 : S_TEXT/ASS
Codec ID/Info                            : Advanced Sub Station Alpha
Duration                                 : 24 min 7 s
Bit rate                                 : 198 b/s
Count of elements                        : 424
Compression mode                         : Lossless
Stream size                              : 35.1 KiB (0%)
Language                                 : Arabic
Default                                  : No
Forced                                   : No

Other Files in this Torrent
[Erai-raws] Mob Psycho 100 - 06 [1080p][2D6328DE].mkv
beta
Anime DDL+NZB mirror
Current Time: 05/04/2020 05:50



About/FAQs