File Size335.1 MB (351,390,042 bytes)
DownloadClickNUpload | Go4Up | Jheberg | MultiUp
  • ClickNupload
  • Fichier
  • Filerio
  • Free
  • Fufox
  • HugeFiles
  • Mightyupload
  • ToutBox
  • Turbobit
  • UpToBox
  • Uplea
  • UploadBaz
  • Uploadable
  • Uploaded
  • Uppit
  • Userscloud
| OpenLoad | SolidFiles
Sendspace: Part1, Part2
Encrypted DownloadDirect
Password:
HashesCRC32: 2F98473A, MD5: 0A020479CC06D7076E8DF680B98E91E7, SHA1: 967CB7C7BCCB3C89BFF8641264DEE54A101AFCD3, SHA256: C3F72F5447923B35544E977E7B9C4995F40A92BE3B3C240277D82E8FBF3F396D, ED2K: 5083172AEF0755FE0DA88FBD7949C0FF
Screenshots
screenshotscreenshotscreenshotscreenshotscreenshot
SubtitlesAll Attachments | eng [ASS], ger [ASS], spa [ASS], spa [ASS], fre [ASS], ita [ASS], por [ASS], ara [ASS]
Additional Info
General
Unique ID                                : 203310797091792177984094441175286738635 (0x98F43C36F5E8F8AAA18A94FFC622EECB)
Complete name                            : [Erai-raws] Mob Psycho 100 - 05  [1080p][2F98473A].mkv
Format                                   : Matroska
Format version                           : Version 4 / Version 2
File size                                : 335 MiB
Duration                                 : 24 min 12 s
Overall bit rate                         : 1 936 kb/s
Encoded date                             : UTC 2017-07-27 22:24:45
Writing application                      : mkvmerge v13.0.0 ('The Juggler') 64bit
Writing library                          : libebml v1.3.4 + libmatroska v1.4.5

Video
ID                                       : 9
Format                                   : AVC
Format/Info                              : Advanced Video Codec
Format profile                           : High@L4
Format settings, CABAC                   : Yes
Format settings, ReFrames                : 4 frames
Codec ID                                 : V_MPEG4/ISO/AVC
Duration                                 : 24 min 11 s
Bit rate                                 : 1 806 kb/s
Width                                    : 1 920 pixels
Height                                   : 1 080 pixels
Display aspect ratio                     : 16:9
Frame rate mode                          : Constant
Frame rate                               : 23.976 (24000/1001) FPS
Color space                              : YUV
Chroma subsampling                       : 4:2:0
Bit depth                                : 8 bits
Scan type                                : Progressive
Bits/(Pixel*Frame)                       : 0.036
Stream size                              : 313 MiB (93%)
Writing library                          : x264 core 142
Encoding settings                        : cabac=1 / ref=4 / deblock=1:1:1 / analyse=0x3:0x113 / me=hex / subme=6 / psy=1 / psy_rd=0.40:0.00 / mixed_ref=1 / me_range=16 / chroma_me=1 / trellis=1 / 8x8dct=1 / cqm=0 / deadzone=21,11 / fast_pskip=1 / chroma_qp_offset=-2 / threads=1 / lookahead_threads=1 / sliced_threads=0 / nr=0 / decimate=1 / interlaced=0 / bluray_compat=0 / constrained_intra=0 / bframes=5 / b_pyramid=2 / b_adapt=1 / b_bias=0 / direct=1 / weightb=1 / open_gop=0 / weightp=1 / keyint=48 / keyint_min=24 / scenecut=40 / intra_refresh=0 / rc_lookahead=30 / rc=crf / mbtree=1 / crf=26.1 / qcomp=0.60 / qpmin=0 / qpmax=69 / qpstep=4 / vbv_maxrate=8000 / vbv_bufsize=12000 / crf_max=0.0 / nal_hrd=none / filler=0 / ip_ratio=1.40 / aq=1:0.60
Default                                  : Yes
Forced                                   : No

Audio
ID                                       : 10
Format                                   : AAC
Format/Info                              : Advanced Audio Codec
Format profile                           : LC
Codec ID                                 : A_AAC
Duration                                 : 24 min 12 s
Bit rate                                 : 126 kb/s
Channel(s)                               : 2 channels
Channel positions                        : Front: L R
Sampling rate                            : 44.1 kHz
Frame rate                               : 43.066 FPS (1024 spf)
Compression mode                         : Lossy
Delay relative to video                  : -83 ms
Stream size                              : 21.7 MiB (6%)
Default                                  : Yes
Forced                                   : No

Text #1
ID                                       : 1
Format                                   : ASS
Codec ID                                 : S_TEXT/ASS
Codec ID/Info                            : Advanced Sub Station Alpha
Duration                                 : 24 min 9 s
Bit rate                                 : 144 b/s
Count of elements                        : 372
Compression mode                         : Lossless
Stream size                              : 25.7 KiB (0%)
Language                                 : English
Default                                  : Yes
Forced                                   : No

Text #2
ID                                       : 2
Format                                   : ASS
Codec ID                                 : S_TEXT/ASS
Codec ID/Info                            : Advanced Sub Station Alpha
Duration                                 : 24 min 9 s
Bit rate                                 : 156 b/s
Count of elements                        : 444
Compression mode                         : Lossless
Stream size                              : 27.6 KiB (0%)
Language                                 : German
Default                                  : No
Forced                                   : No

Text #3
ID                                       : 3
Format                                   : ASS
Codec ID                                 : S_TEXT/ASS
Codec ID/Info                            : Advanced Sub Station Alpha
Duration                                 : 24 min 6 s
Bit rate                                 : 127 b/s
Count of elements                        : 346
Compression mode                         : Lossless
Stream size                              : 22.5 KiB (0%)
Language                                 : Spanish
Default                                  : No
Forced                                   : No

Text #4
ID                                       : 4
Format                                   : ASS
Codec ID                                 : S_TEXT/ASS
Codec ID/Info                            : Advanced Sub Station Alpha
Duration                                 : 24 min 6 s
Bit rate                                 : 127 b/s
Count of elements                        : 346
Compression mode                         : Lossless
Stream size                              : 22.5 KiB (0%)
Language                                 : Spanish
Default                                  : No
Forced                                   : No

Text #5
ID                                       : 5
Format                                   : ASS
Codec ID                                 : S_TEXT/ASS
Codec ID/Info                            : Advanced Sub Station Alpha
Duration                                 : 24 min 6 s
Bit rate                                 : 137 b/s
Count of elements                        : 366
Compression mode                         : Lossless
Stream size                              : 24.4 KiB (0%)
Language                                 : French
Default                                  : No
Forced                                   : No

Text #6
ID                                       : 6
Format                                   : ASS
Codec ID                                 : S_TEXT/ASS
Codec ID/Info                            : Advanced Sub Station Alpha
Duration                                 : 24 min 9 s
Bit rate                                 : 150 b/s
Count of elements                        : 370
Compression mode                         : Lossless
Stream size                              : 26.6 KiB (0%)
Language                                 : Italian
Default                                  : No
Forced                                   : No

Text #7
ID                                       : 7
Format                                   : ASS
Codec ID                                 : S_TEXT/ASS
Codec ID/Info                            : Advanced Sub Station Alpha
Duration                                 : 24 min 9 s
Bit rate                                 : 145 b/s
Count of elements                        : 369
Compression mode                         : Lossless
Stream size                              : 25.7 KiB (0%)
Language                                 : Portuguese
Default                                  : No
Forced                                   : No

Text #8
ID                                       : 8
Format                                   : ASS
Codec ID                                 : S_TEXT/ASS
Codec ID/Info                            : Advanced Sub Station Alpha
Duration                                 : 24 min 9 s
Bit rate                                 : 175 b/s
Count of elements                        : 368
Compression mode                         : Lossless
Stream size                              : 31.0 KiB (0%)
Language                                 : Arabic
Default                                  : No
Forced                                   : No

Other Files in this Torrent
[Erai-raws] Mob Psycho 100 - 05 [1080p][2F98473A].mkv
beta
Anime DDL+NZB mirror
Current Time: 15/12/2019 02:36



About/FAQs