File Size475.1 MB (498,202,410 bytes)
DownloadClickNUpload | Go4Up | Jheberg | MultiUp | OpenLoad | ZippyShare
Sendspace: Part1, Part2
HashesCRC32: 48331C66, MD5: 32BCAC25A112D4DFEE436E6E67B64730, SHA1: 8F33805477BFE6E814D4FB7BBDE6343826FAE287, SHA256: EF4565CAD1EBE9398533D46E5EBD1DF2CF23B08DA664A1B07D5AB5C3DB5A7F8F, ED2K: 3F5BA279CA0BB5929E1B16F722890466
Screenshots
screenshotscreenshotscreenshotscreenshotscreenshot
SubtitlesAll Attachments | English(US) [eng, ASS], Arabic [ara, ASS], Francais(France) [fre, ASS], Deutsch [ger, ASS], Italiano [ita, ASS], Espanol(Espana) [spa, ASS], Espanol [spa, ASS], Portugues(Brasil) [por, ASS], Russian [rus, ASS]
Additional Info
General
Unique ID                                : 169871125355254915125184929705347557535 (0x7FCBFD1B7F9FE95E1C5464BC7B5CA89F)
Complete name                            : [Erai-raws] Kaze ga Tsuyoku Fuiteiru - 19 [720p][Multiple Subtitle].mkv
Format                                   : Matroska
Format version                           : Version 4
File size                                : 475 MiB
Duration                                 : 22 min 45 s
Overall bit rate                         : 2 918 kb/s
Encoded date                             : UTC 2019-02-26 19:32:18
Writing application                      : mkvmerge v26.0.0 ('In The Game') 64-bit
Writing library                          : libebml v1.3.6 + libmatroska v1.4.9

Video
ID                                       : 1
Format                                   : AVC
Format/Info                              : Advanced Video Codec
Format profile                           : High@L4
Format settings                          : CABAC / 6 Ref Frames
Format settings, CABAC                   : Yes
Format settings, ReFrames                : 6 frames
Codec ID                                 : V_MPEG4/ISO/AVC
Duration                                 : 22 min 44 s
Bit rate                                 : 2 788 kb/s
Width                                    : 1 280 pixels
Height                                   : 720 pixels
Display aspect ratio                     : 16:9
Frame rate mode                          : Constant
Frame rate                               : 23.976 (24000/1001) FPS
Color space                              : YUV
Chroma subsampling                       : 4:2:0
Bit depth                                : 8 bits
Scan type                                : Progressive
Bits/(Pixel*Frame)                       : 0.126
Stream size                              : 454 MiB (95%)
Writing library                          : x264 core 142
Encoding settings                        : cabac=1 / ref=6 / deblock=1:1:1 / analyse=0x3:0x113 / me=umh / subme=8 / psy=1 / psy_rd=0.40:0.00 / mixed_ref=1 / me_range=16 / chroma_me=1 / trellis=1 / 8x8dct=1 / cqm=0 / deadzone=21,11 / fast_pskip=1 / chroma_qp_offset=-2 / threads=10 / lookahead_threads=1 / sliced_threads=0 / nr=0 / decimate=1 / interlaced=0 / bluray_compat=0 / constrained_intra=0 / bframes=3 / b_pyramid=2 / b_adapt=2 / b_bias=0 / direct=3 / weightb=1 / open_gop=0 / weightp=2 / keyint=9999999 / keyint_min=5000000 / scenecut=0 / intra_refresh=0 / rc_lookahead=50 / rc=crf / mbtree=1 / crf=15.0 / qcomp=0.60 / qpmin=0 / qpmax=69 / qpstep=4 / vbv_maxrate=4000 / vbv_bufsize=6000 / crf_max=0.0 / nal_hrd=none / filler=0 / ip_ratio=1.40 / aq=1:0.60
Default                                  : Yes
Forced                                   : No

Audio
ID                                       : 2
Format                                   : AAC LC
Format/Info                              : Advanced Audio Codec Low Complexity
Codec ID                                 : A_AAC-2
Duration                                 : 22 min 45 s
Bit rate                                 : 128 kb/s
Channel(s)                               : 2 channels
Channel layout                           : L R
Sampling rate                            : 44.1 kHz
Frame rate                               : 43.066 FPS (1024 SPF)
Compression mode                         : Lossy
Delay relative to video                  : -83 ms
Stream size                              : 20.8 MiB (4%)
Default                                  : Yes
Forced                                   : No

Text #1
ID                                       : 3
Format                                   : ASS
Codec ID                                 : S_TEXT/ASS
Codec ID/Info                            : Advanced Sub Station Alpha
Duration                                 : 22 min 44 s
Bit rate                                 : 126 b/s
Count of elements                        : 319
Compression mode                         : Lossless
Stream size                              : 21.1 KiB (0%)
Title                                    : English(US)
Language                                 : English
Default                                  : Yes
Forced                                   : No

Text #2
ID                                       : 4
Format                                   : ASS
Codec ID                                 : S_TEXT/ASS
Codec ID/Info                            : Advanced Sub Station Alpha
Duration                                 : 22 min 44 s
Bit rate                                 : 149 b/s
Count of elements                        : 316
Compression mode                         : Lossless
Stream size                              : 24.9 KiB (0%)
Title                                    : Arabic
Language                                 : Arabic
Default                                  : No
Forced                                   : No

Text #3
ID                                       : 5
Format                                   : ASS
Codec ID                                 : S_TEXT/ASS
Codec ID/Info                            : Advanced Sub Station Alpha
Duration                                 : 22 min 37 s
Bit rate                                 : 120 b/s
Count of elements                        : 293
Compression mode                         : Lossless
Stream size                              : 20.0 KiB (0%)
Title                                    : Francais(France)
Language                                 : French
Default                                  : No
Forced                                   : No

Text #4
ID                                       : 6
Format                                   : ASS
Codec ID                                 : S_TEXT/ASS
Codec ID/Info                            : Advanced Sub Station Alpha
Duration                                 : 22 min 43 s
Bit rate                                 : 127 b/s
Count of elements                        : 309
Compression mode                         : Lossless
Stream size                              : 21.2 KiB (0%)
Title                                    : Deutsch
Language                                 : German
Default                                  : No
Forced                                   : No

Text #5
ID                                       : 7
Format                                   : ASS
Codec ID                                 : S_TEXT/ASS
Codec ID/Info                            : Advanced Sub Station Alpha
Duration                                 : 22 min 43 s
Bit rate                                 : 146 b/s
Count of elements                        : 362
Compression mode                         : Lossless
Stream size                              : 24.3 KiB (0%)
Title                                    : Italiano
Language                                 : Italian
Default                                  : No
Forced                                   : No

Text #6
ID                                       : 8
Format                                   : ASS
Codec ID                                 : S_TEXT/ASS
Codec ID/Info                            : Advanced Sub Station Alpha
Duration                                 : 22 min 44 s
Bit rate                                 : 124 b/s
Count of elements                        : 305
Compression mode                         : Lossless
Stream size                              : 20.8 KiB (0%)
Title                                    : Espanol(Espana)
Language                                 : Spanish
Default                                  : No
Forced                                   : No

Text #7
ID                                       : 9
Format                                   : ASS
Codec ID                                 : S_TEXT/ASS
Codec ID/Info                            : Advanced Sub Station Alpha
Duration                                 : 22 min 44 s
Bit rate                                 : 124 b/s
Count of elements                        : 305
Compression mode                         : Lossless
Stream size                              : 20.8 KiB (0%)
Title                                    : Espanol
Language                                 : Spanish
Default                                  : No
Forced                                   : No

Text #8
ID                                       : 10
Format                                   : ASS
Codec ID                                 : S_TEXT/ASS
Codec ID/Info                            : Advanced Sub Station Alpha
Duration                                 : 22 min 44 s
Bit rate                                 : 128 b/s
Count of elements                        : 311
Compression mode                         : Lossless
Stream size                              : 21.5 KiB (0%)
Title                                    : Portugues(Brasil)
Language                                 : Portuguese
Default                                  : No
Forced                                   : No

Text #9
ID                                       : 11
Format                                   : ASS
Codec ID                                 : S_TEXT/ASS
Codec ID/Info                            : Advanced Sub Station Alpha
Duration                                 : 22 min 36 s
Bit rate                                 : 156 b/s
Count of elements                        : 308
Compression mode                         : Lossless
Stream size                              : 25.9 KiB (0%)
Title                                    : Russian
Language                                 : Russian
Default                                  : No
Forced                                   : No
beta
Anime DDL+NZB mirror
Current Time: 03/08/2021 17:44



About/FAQs