[Erai-raws] Haikyuu!! To the Top 2nd Season - 08 [480p][Multiple Subtitle].mkv


File Size362.9 MB (380,552,420 bytes)
DownloadAnonFiles | ClickNUpload | DropAPK | Free | MultiUp
  • BdUpload
  • DownAce
  • Fichier
  • FileCloud
  • Filerio
  • FilesCdn
  • IndiShare
  • Kbagi
  • Turbobit
  • UpToBox
  • Uppit
| SolidFiles | ZippyShare
HashesCRC32: ECF9B373, MD5: 2608A092735D3FAF6BED44FC83F2A331, SHA1: 97255984A4B75E3E1347F3E9716EFBB682D2B2BF, SHA256: 26F39D540172FFE1E386120471915B0F795F923089C222FCDBBD9CF2802C6D5A, ED2K: A61766338345482BAE5D6B1CED6B3A6A
Screenshots
screenshotscreenshotscreenshotscreenshotscreenshot
SubtitlesAll Attachments | English(US) [eng, ASS], Espanol [spa, ASS], Portugues(Brasil) [por, ASS]
Additional Info
General
Unique ID                                : 167539656176211150864208917263680309000 (0x7E0AF6CD4E29FC722956D4E78F5C8708)
Complete name                            : [Erai-raws] Haikyuu!! To the Top 2nd Season - 08 [480p][Multiple Subtitle].mkv
Format                                   : Matroska
Format version                           : Version 4
File size                                : 363 MiB
Duration                                 : 23 min 58 s
Overall bit rate                         : 2 116 kb/s
Encoded date                             : UTC 2020-11-21 21:41:25
Writing application                      : mkvmerge v48.0.0 ('Fortress Around Your Heart') 64-bit
Writing library                          : libebml v1.4.0 + libmatroska v1.6.0
Attachments                              : Arial_0.ttf / calibri.ttf / comic_0.ttf / georgia_0.ttf / impact_0.ttf / Tahoma_0.ttf / times_0.ttf / trebuc_0.ttf / verdana_0.ttf / AdobeArabic-Bold.otf

Video
ID                                       : 1
Format                                   : AVC
Format/Info                              : Advanced Video Codec
Format profile                           : Main@L3.1
Format settings                          : CABAC / 6 Ref Frames
Format settings, CABAC                   : Yes
Format settings, ReFrames                : 6 frames
Codec ID                                 : V_MPEG4/ISO/AVC
Duration                                 : 23 min 57 s
Bit rate                                 : 2 000 kb/s
Width                                    : 848 pixels
Height                                   : 480 pixels
Display aspect ratio                     : 16:9
Frame rate mode                          : Constant
Frame rate                               : 23.976 (24000/1001) FPS
Color space                              : YUV
Chroma subsampling                       : 4:2:0
Bit depth                                : 8 bits
Scan type                                : Progressive
Bits/(Pixel*Frame)                       : 0.205
Stream size                              : 342 MiB (94%)
Writing library                          : x264 core 142
Encoding settings                        : cabac=1 / ref=6 / deblock=1:1:1 / analyse=0x1:0x111 / me=umh / subme=8 / psy=1 / psy_rd=0.40:0.00 / mixed_ref=1 / me_range=16 / chroma_me=1 / trellis=1 / 8x8dct=0 / cqm=0 / deadzone=21,11 / fast_pskip=1 / chroma_qp_offset=-2 / threads=6 / lookahead_threads=1 / sliced_threads=0 / nr=0 / decimate=1 / interlaced=0 / bluray_compat=0 / constrained_intra=0 / bframes=0 / weightp=2 / keyint=96 / keyint_min=48 / scenecut=40 / intra_refresh=0 / rc_lookahead=48 / rc=2pass / mbtree=1 / bitrate=2000 / ratetol=1.0 / qcomp=0.60 / qpmin=0 / qpmax=69 / qpstep=4 / cplxblur=20.0 / qblur=0.5 / vbv_maxrate=3000 / vbv_bufsize=4500 / nal_hrd=none / filler=0 / ip_ratio=1.40 / aq=1:0.60
Language                                 : Japanese
Default                                  : Yes
Forced                                   : No

Audio
ID                                       : 2
Format                                   : AAC LC
Format/Info                              : Advanced Audio Codec Low Complexity
Codec ID                                 : A_AAC-2
Duration                                 : 23 min 57 s
Bit rate                                 : 96.0 kb/s
Channel(s)                               : 2 channels
Channel layout                           : L R
Sampling rate                            : 44.1 kHz
Frame rate                               : 43.066 FPS (1024 SPF)
Compression mode                         : Lossy
Stream size                              : 16.5 MiB (5%)
Language                                 : Japanese
Default                                  : Yes
Forced                                   : No

Text #1
ID                                       : 3
Format                                   : ASS
Codec ID                                 : S_TEXT/ASS
Codec ID/Info                            : Advanced Sub Station Alpha
Duration                                 : 23 min 51 s
Bit rate                                 : 145 b/s
Count of elements                        : 328
Compression mode                         : Lossless
Stream size                              : 25.5 KiB (0%)
Title                                    : English(US)
Language                                 : English
Default                                  : Yes
Forced                                   : No

Text #2
ID                                       : 4
Format                                   : ASS
Codec ID                                 : S_TEXT/ASS
Codec ID/Info                            : Advanced Sub Station Alpha
Duration                                 : 23 min 53 s
Bit rate                                 : 106 b/s
Count of elements                        : 302
Compression mode                         : Lossless
Stream size                              : 18.7 KiB (0%)
Title                                    : Espanol
Language                                 : Spanish
Default                                  : No
Forced                                   : No

Text #3
ID                                       : 5
Format                                   : ASS
Codec ID                                 : S_TEXT/ASS
Codec ID/Info                            : Advanced Sub Station Alpha
Duration                                 : 23 min 51 s
Bit rate                                 : 142 b/s
Count of elements                        : 327
Compression mode                         : Lossless
Stream size                              : 24.9 KiB (0%)
Title                                    : Portugues(Brasil)
Language                                 : Portuguese
Default                                  : No
Forced                                   : No
beta
Anime DDL+NZB mirror
Current Time: 16/01/2021 21:02



About/FAQs