File Size975.3 MB (1,022,682,166 bytes)
DownloadClickNUpload | Jheberg | MultiUp | OpenLoad
Sendspace: Part1, Part2, Part3, Part4
SolidFiles: Part1, Part2
ZippyShare: Part1, Part2
Encrypted DownloadDirect
Password:
HashesCRC32: 6BB8ECCD, MD5: C12719B674AB6D426667E9645708E087, SHA1: 6F813E1F92F9D7F90113186EF57F97D9A8531A4B, SHA256: ED1DE3C4E956E2C75701197FC845A4A04AA2BECBAC02AF493462028FBCF0048B, ED2K: BD4D1B4587EADED5BE1915BFF0FD080E
Screenshots
screenshotscreenshotscreenshotscreenshotscreenshot
SubtitlesAll Attachments | English(US) [eng, ASS], Arabic [ara, ASS], Deutsch [ger, ASS], Espanol(Espana) [spa, ASS], Espanol [spa, ASS], Francais(France) [fre, ASS], Italiano [ita, ASS], Portugues(Brasil) [por, ASS], Russian [rus, ASS]
Additional Info
General
Unique ID                                : 29934355406230942892014788753234867507 (0x168525AB3F5A259CCCEF2798B66C3533)
Complete name                            : [Erai-raws] Free! - Dive to the Future - 03 [1080p][Multiple Subtitle].mkv
Format                                   : Matroska
Format version                           : Version 4 / Version 2
File size                                : 975 MiB
Duration                                 : 23 min 40 s
Overall bit rate                         : 5 761 kb/s
Encoded date                             : UTC 2018-07-25 18:10:57
Writing application                      : mkvmerge v23.0.0 ('The Bride Said No') 32-bit
Writing library                          : libebml v1.3.6 + libmatroska v1.4.9

Video
ID                                       : 1
Format                                   : AVC
Format/Info                              : Advanced Video Codec
Format profile                           : High@L4
Format settings, CABAC                   : Yes
Format settings, ReFrames                : 4 frames
Codec ID                                 : V_MPEG4/ISO/AVC
Duration                                 : 23 min 40 s
Bit rate                                 : 5 629 kb/s
Width                                    : 1 920 pixels
Height                                   : 1 080 pixels
Display aspect ratio                     : 16:9
Frame rate mode                          : Constant
Frame rate                               : 23.976 (24000/1001) FPS
Color space                              : YUV
Chroma subsampling                       : 4:2:0
Bit depth                                : 8 bits
Scan type                                : Progressive
Bits/(Pixel*Frame)                       : 0.113
Stream size                              : 953 MiB (98%)
Writing library                          : x264 core 142
Encoding settings                        : cabac=1 / ref=4 / deblock=1:1:1 / analyse=0x3:0x113 / me=umh / subme=8 / psy=1 / psy_rd=0.40:0.00 / mixed_ref=1 / me_range=16 / chroma_me=1 / trellis=1 / 8x8dct=1 / cqm=0 / deadzone=21,11 / fast_pskip=1 / chroma_qp_offset=-2 / threads=12 / lookahead_threads=2 / sliced_threads=0 / nr=0 / decimate=1 / interlaced=0 / bluray_compat=0 / constrained_intra=0 / bframes=3 / b_pyramid=2 / b_adapt=2 / b_bias=0 / direct=3 / weightb=1 / open_gop=0 / weightp=2 / keyint=48 / keyint_min=24 / scenecut=40 / intra_refresh=0 / rc_lookahead=48 / rc=crf / mbtree=1 / crf=15.0 / qcomp=0.60 / qpmin=0 / qpmax=69 / qpstep=4 / vbv_maxrate=8000 / vbv_bufsize=12000 / crf_max=0.0 / nal_hrd=none / filler=0 / ip_ratio=1.40 / aq=1:0.60
Default                                  : Yes
Forced                                   : No

Audio
ID                                       : 2
Format                                   : AAC
Format/Info                              : Advanced Audio Codec
Format profile                           : LC
Codec ID                                 : A_AAC
Duration                                 : 23 min 40 s
Bit rate                                 : 128 kb/s
Channel(s)                               : 2 channels
Channel positions                        : Front: L R
Sampling rate                            : 44.1 kHz
Frame rate                               : 43.066 FPS (1024 spf)
Compression mode                         : Lossy
Delay relative to video                  : -83 ms
Stream size                              : 21.7 MiB (2%)
Default                                  : Yes
Forced                                   : No

Text #1
ID                                       : 3
Format                                   : ASS
Codec ID                                 : S_TEXT/ASS
Codec ID/Info                            : Advanced Sub Station Alpha
Duration                                 : 22 min 9 s
Bit rate                                 : 144 b/s
Count of elements                        : 370
Compression mode                         : Lossless
Stream size                              : 23.5 KiB (0%)
Title                                    : English(US)
Language                                 : English
Default                                  : Yes
Forced                                   : No

Text #2
ID                                       : 4
Format                                   : ASS
Codec ID                                 : S_TEXT/ASS
Codec ID/Info                            : Advanced Sub Station Alpha
Duration                                 : 22 min 9 s
Bit rate                                 : 180 b/s
Count of elements                        : 369
Compression mode                         : Lossless
Stream size                              : 29.3 KiB (0%)
Title                                    : Arabic
Language                                 : Arabic
Default                                  : No
Forced                                   : No

Text #3
ID                                       : 5
Format                                   : ASS
Codec ID                                 : S_TEXT/ASS
Codec ID/Info                            : Advanced Sub Station Alpha
Duration                                 : 22 min 7 s
Bit rate                                 : 152 b/s
Count of elements                        : 369
Compression mode                         : Lossless
Stream size                              : 24.7 KiB (0%)
Title                                    : Deutsch
Language                                 : German
Default                                  : No
Forced                                   : No

Text #4
ID                                       : 6
Format                                   : ASS
Codec ID                                 : S_TEXT/ASS
Codec ID/Info                            : Advanced Sub Station Alpha
Duration                                 : 22 min 7 s
Bit rate                                 : 143 b/s
Count of elements                        : 359
Compression mode                         : Lossless
Stream size                              : 23.2 KiB (0%)
Title                                    : Espanol(Espana)
Language                                 : Spanish
Default                                  : No
Forced                                   : No

Text #5
ID                                       : 7
Format                                   : ASS
Codec ID                                 : S_TEXT/ASS
Codec ID/Info                            : Advanced Sub Station Alpha
Duration                                 : 22 min 7 s
Bit rate                                 : 142 b/s
Count of elements                        : 359
Compression mode                         : Lossless
Stream size                              : 23.2 KiB (0%)
Title                                    : Espanol
Language                                 : Spanish
Default                                  : No
Forced                                   : No

Text #6
ID                                       : 8
Format                                   : ASS
Codec ID                                 : S_TEXT/ASS
Codec ID/Info                            : Advanced Sub Station Alpha
Duration                                 : 22 min 6 s
Bit rate                                 : 132 b/s
Count of elements                        : 315
Compression mode                         : Lossless
Stream size                              : 21.5 KiB (0%)
Title                                    : Francais(France)
Language                                 : French
Default                                  : No
Forced                                   : No

Text #7
ID                                       : 9
Format                                   : ASS
Codec ID                                 : S_TEXT/ASS
Codec ID/Info                            : Advanced Sub Station Alpha
Duration                                 : 22 min 7 s
Bit rate                                 : 150 b/s
Count of elements                        : 405
Compression mode                         : Lossless
Stream size                              : 24.5 KiB (0%)
Title                                    : Italiano
Language                                 : Italian
Default                                  : No
Forced                                   : No

Text #8
ID                                       : 10
Format                                   : ASS
Codec ID                                 : S_TEXT/ASS
Codec ID/Info                            : Advanced Sub Station Alpha
Duration                                 : 22 min 7 s
Bit rate                                 : 149 b/s
Count of elements                        : 364
Compression mode                         : Lossless
Stream size                              : 24.2 KiB (0%)
Title                                    : Portugues(Brasil)
Language                                 : Portuguese
Default                                  : No
Forced                                   : No

Text #9
ID                                       : 11
Format                                   : ASS
Codec ID                                 : S_TEXT/ASS
Codec ID/Info                            : Advanced Sub Station Alpha
Duration                                 : 22 min 7 s
Bit rate                                 : 195 b/s
Count of elements                        : 371
Compression mode                         : Lossless
Stream size                              : 31.8 KiB (0%)
Title                                    : Russian
Language                                 : Russian
Default                                  : No
Forced                                   : No

Other Files in this Torrent
[Erai-raws] Free! - Dive to the Future - 03 [1080p][Multiple Subtitle].mkv
beta
Anime DDL+NZB mirror
Current Time: 23/01/2020 02:00



About/FAQs