[Erai-raws] Dolls` Frontline - 02 [720p][Multiple Subtitle][5AFAB5EE].mkv


File Size640.5 MB (671,651,988 bytes)
DownloadClickNUpload | DownloadGG
MultiUp: Part1
  • BdUpload
  • DownAce
  • Fichier
  • FileCloud
  • Filerio
  • FilesCdn
  • IndiShare
  • Kbagi
  • Turbobit
  • UpToBox
  • Uppit
, Part2
  • BdUpload
  • DownAce
  • Fichier
  • FileCloud
  • Filerio
  • FilesCdn
  • IndiShare
  • Kbagi
  • Turbobit
  • UpToBox
  • Uppit

ZippyShare: Part1, Part2
HashesCRC32: 5AFAB5EE, MD5: 1116F1476E599AAB52D7F66A9B208A73, SHA1: AEB6967EA0D125E0DE1D23959FE6D40A6E5D6A75, SHA256: 2A8D1F8773D210C4AA0DB4B068673BF024B5336936D3229A037B369EFB1C9DD8, ED2K: E7304782FE4D85626C1F2164AD905F55
Screenshots
screenshotscreenshotscreenshotscreenshotscreenshot
SubtitlesAll Attachments | English [eng, ASS], Portuguese(Brazil) [por, ASS], Spanish(Latin_America) [spa, ASS]
Additional Info
General
Unique ID                                : 1924880427903003662924421715571015695 (0x172B7EEAB3423FDF7A67EB962BC800F)
Complete name                            : [Erai-raws] Dolls` Frontline - 02 [720p][Multiple Subtitle][5AFAB5EE].mkv
Format                                   : Matroska
Format version                           : Version 4
File size                                : 641 MiB
Duration                                 : 24 min 47 s
Overall bit rate                         : 3 613 kb/s
Encoded date                             : UTC 2022-01-14 17:02:10
Writing application                      : mkvmerge v55.0.0 ('Waiting For Space') 64-bit
Writing library                          : libebml v1.4.2 + libmatroska v1.6.4
Attachments                              : OpenSans-ExtraBold.ttf / OpenSans-Italic.ttf / OpenSans-Light.ttf / OpenSans-Regular.ttf / OpenSans-Semibold.ttf / MIAMA.OTF

Video
ID                                       : 1
Format                                   : AVC
Format/Info                              : Advanced Video Codec
Format profile                           : High@L4
Format settings                          : CABAC / 3 Ref Frames
Format settings, CABAC                   : Yes
Format settings, Reference frames        : 3 frames
Codec ID                                 : V_MPEG4/ISO/AVC
Duration                                 : 24 min 47 s
Bit rate                                 : 3 347 kb/s
Width                                    : 1 280 pixels
Height                                   : 720 pixels
Display aspect ratio                     : 16:9
Frame rate mode                          : Constant
Frame rate                               : 23.976 (24000/1001) FPS
Color space                              : YUV
Chroma subsampling                       : 4:2:0
Bit depth                                : 8 bits
Scan type                                : Progressive
Bits/(Pixel*Frame)                       : 0.151
Stream size                              : 593 MiB (93%)
Language                                 : Japanese
Default                                  : Yes
Forced                                   : No
Color range                              : Limited
Matrix coefficients                      : BT.709

Audio
ID                                       : 2
Format                                   : AAC LC
Format/Info                              : Advanced Audio Codec Low Complexity
Codec ID                                 : A_AAC-2
Duration                                 : 24 min 47 s
Bit rate                                 : 256 kb/s
Channel(s)                               : 2 channels
Channel layout                           : L R
Sampling rate                            : 48.0 kHz
Frame rate                               : 46.875 FPS (1024 SPF)
Compression mode                         : Lossy
Stream size                              : 45.4 MiB (7%)
Language                                 : Japanese
Default                                  : Yes
Forced                                   : No

Text #1
ID                                       : 3
Format                                   : ASS
Codec ID                                 : S_TEXT/ASS
Codec ID/Info                            : Advanced Sub Station Alpha
Duration                                 : 24 min 33 s
Bit rate                                 : 96 b/s
Count of elements                        : 323
Compression mode                         : Lossless
Stream size                              : 17.4 KiB (0%)
Title                                    : English
Language                                 : English
Default                                  : Yes
Forced                                   : No

Text #2
ID                                       : 4
Format                                   : ASS
Codec ID                                 : S_TEXT/ASS
Codec ID/Info                            : Advanced Sub Station Alpha
Duration                                 : 24 min 32 s
Bit rate                                 : 101 b/s
Count of elements                        : 322
Compression mode                         : Lossless
Stream size                              : 18.2 KiB (0%)
Title                                    : Portuguese(Brazil)
Language                                 : Portuguese
Default                                  : No
Forced                                   : No

Text #3
ID                                       : 5
Format                                   : ASS
Codec ID                                 : S_TEXT/ASS
Codec ID/Info                            : Advanced Sub Station Alpha
Duration                                 : 24 min 34 s
Bit rate                                 : 96 b/s
Count of elements                        : 313
Compression mode                         : Lossless
Stream size                              : 17.3 KiB (0%)
Title                                    : Spanish(Latin_America)
Language                                 : Spanish
Default                                  : No
Forced                                   : No
beta
Anime DDL+NZB mirror
Current Time: 19/05/2022 23:39



About/FAQs

Discord