[Erai-raws] Detective Conan - 004 [480p][Multiple Subtitle].mkv


File Size364.4 MB (382,076,702 bytes)
DownloadAnonFiles | ClickNUpload | DropAPK | Free | MultiUp
  • BdUpload
  • DownAce
  • Fichier
  • FileCloud
  • Filerio
  • FilesCdn
  • IndiShare
  • Kbagi
  • Turbobit
  • UpToBox
  • Uppit
| ZippyShare
Sendspace: Part1, Part2
HashesCRC32: BA62A554, MD5: BB8C263485520C4A509742369AA486E4, SHA1: 4ABAA5BB430B89749194A2F1C066D6BB65EBA611, SHA256: 681DB767587096B887DF78CB9DE9656EA805D34D02BD932C6C797AFAB9BFBAC0, ED2K: 3BAE998C4F0F2A0B465C3CDC7E73E3ED
Screenshots
screenshotscreenshotscreenshotscreenshotscreenshot
SubtitlesAll Attachments | eng [ASS], rus [ASS], spa [ASS], spa [ASS], por [ASS]
Additional Info
General
Unique ID                                : 226922817353517704203945656783454005566 (0xAAB7BEB1CE0597CD0C62AD0BD282E93E)
Complete name                            : [Erai-raws] Detective Conan - 004 [480p][Multiple Subtitle].mkv
Format                                   : Matroska
Format version                           : Version 4
File size                                : 364 MiB
Duration                                 : 24 min 17 s
Overall bit rate                         : 2 097 kb/s
Encoded date                             : UTC 2020-09-22 02:05:25
Writing application                      : mkvmerge v48.0.0 ('Fortress Around Your Heart') 64-bit
Writing library                          : libebml v1.4.0 + libmatroska v1.6.0

Video
ID                                       : 1
Format                                   : AVC
Format/Info                              : Advanced Video Codec
Format profile                           : Main@L3
Format settings                          : CABAC / 6 Ref Frames
Format settings, CABAC                   : Yes
Format settings, ReFrames                : 6 frames
Codec ID                                 : V_MPEG4/ISO/AVC
Duration                                 : 24 min 17 s
Bit rate                                 : 2 000 kb/s
Width                                    : 704 pixels
Height                                   : 480 pixels
Display aspect ratio                     : 3:2
Frame rate mode                          : Constant
Frame rate                               : 29.970 (30000/1001) FPS
Standard                                 : NTSC
Color space                              : YUV
Chroma subsampling                       : 4:2:0
Bit depth                                : 8 bits
Scan type                                : Progressive
Bits/(Pixel*Frame)                       : 0.197
Stream size                              : 347 MiB (95%)
Writing library                          : x264 core 142
Encoding settings                        : cabac=1 / ref=6 / deblock=1:1:1 / analyse=0x1:0x111 / me=umh / subme=8 / psy=1 / psy_rd=0.40:0.00 / mixed_ref=1 / me_range=16 / chroma_me=1 / trellis=1 / 8x8dct=0 / cqm=0 / deadzone=21,11 / fast_pskip=1 / chroma_qp_offset=-2 / threads=6 / lookahead_threads=1 / sliced_threads=0 / nr=0 / decimate=1 / interlaced=0 / bluray_compat=0 / constrained_intra=0 / bframes=0 / weightp=2 / keyint=120 / keyint_min=60 / scenecut=40 / intra_refresh=0 / rc_lookahead=60 / rc=2pass / mbtree=1 / bitrate=2000 / ratetol=1.0 / qcomp=0.60 / qpmin=0 / qpmax=69 / qpstep=4 / cplxblur=20.0 / qblur=0.5 / vbv_maxrate=3000 / vbv_bufsize=4500 / nal_hrd=none / filler=0 / ip_ratio=1.40 / aq=1:0.60
Default                                  : Yes
Forced                                   : No

Audio
ID                                       : 2
Format                                   : AAC LC
Format/Info                              : Advanced Audio Codec Low Complexity
Codec ID                                 : A_AAC-2
Duration                                 : 24 min 17 s
Bit rate                                 : 96.0 kb/s
Channel(s)                               : 2 channels
Channel layout                           : L R
Sampling rate                            : 44.1 kHz
Frame rate                               : 43.066 FPS (1024 SPF)
Compression mode                         : Lossy
Stream size                              : 16.7 MiB (5%)
Default                                  : Yes
Forced                                   : No

Text #1
ID                                       : 3
Format                                   : ASS
Codec ID                                 : S_TEXT/ASS
Codec ID/Info                            : Advanced Sub Station Alpha
Duration                                 : 24 min 17 s
Bit rate                                 : 134 b/s
Count of elements                        : 382
Compression mode                         : Lossless
Stream size                              : 24.0 KiB (0%)
Language                                 : English
Default                                  : Yes
Forced                                   : No

Text #2
ID                                       : 4
Format                                   : ASS
Codec ID                                 : S_TEXT/ASS
Codec ID/Info                            : Advanced Sub Station Alpha
Duration                                 : 24 min 16 s
Bit rate                                 : 174 b/s
Count of elements                        : 382
Compression mode                         : Lossless
Stream size                              : 31.0 KiB (0%)
Language                                 : Russian
Default                                  : No
Forced                                   : No

Text #3
ID                                       : 5
Format                                   : ASS
Codec ID                                 : S_TEXT/ASS
Codec ID/Info                            : Advanced Sub Station Alpha
Duration                                 : 24 min 16 s
Bit rate                                 : 122 b/s
Count of elements                        : 338
Compression mode                         : Lossless
Stream size                              : 21.8 KiB (0%)
Language                                 : Spanish
Default                                  : No
Forced                                   : No

Text #4
ID                                       : 6
Format                                   : ASS
Codec ID                                 : S_TEXT/ASS
Codec ID/Info                            : Advanced Sub Station Alpha
Duration                                 : 24 min 16 s
Bit rate                                 : 122 b/s
Count of elements                        : 338
Compression mode                         : Lossless
Stream size                              : 21.8 KiB (0%)
Language                                 : Spanish
Default                                  : No
Forced                                   : No

Text #5
ID                                       : 7
Format                                   : ASS
Codec ID                                 : S_TEXT/ASS
Codec ID/Info                            : Advanced Sub Station Alpha
Duration                                 : 24 min 16 s
Bit rate                                 : 129 b/s
Count of elements                        : 378
Compression mode                         : Lossless
Stream size                              : 23.0 KiB (0%)
Language                                 : Portuguese
Default                                  : No
Forced                                   : No

Other Files in this Torrent
[Erai-raws] Detective Conan - 004 [480p][Multiple Subtitle].mkv
beta
Anime DDL+NZB mirror
Current Time: 22/01/2021 09:35



About/FAQs