[Erai-raws] D4DJ - First Mix - 04 [VRV][720p][Multiple Subtitle].mkv


File Size708.8 MB (743,182,471 bytes)
DownloadAnonFiles | ClickNUpload | DropAPK | Free
MultiUp: Part1
  • BdUpload
  • DownAce
  • Fichier
  • FileCloud
  • Filerio
  • FilesCdn
  • IndiShare
  • Kbagi
  • Turbobit
  • UpToBox
  • Uppit
, Part2
  • BdUpload
  • DownAce
  • Fichier
  • FileCloud
  • Filerio
  • FilesCdn
  • IndiShare
  • Kbagi
  • Turbobit
  • UpToBox
  • Uppit

SolidFiles: Part1, Part2
ZippyShare: Part1, Part2
HashesCRC32: D17817B9, MD5: 84F3D5CD1EC90FA6249E1D2B8992B914, SHA1: C67BC001D6EFB879CFFF3C82E970402E81A858EA, SHA256: 5762BBF561719C6B19F519C08F9E96A57AEFFDF1E30BDAF23D4817EDC7C0F98D, ED2K: 19E5D770499E73F3DC68272E5211A312
Screenshots
screenshotscreenshotscreenshotscreenshotscreenshot
SubtitlesAll Attachments | English(US) [eng, ASS], English(US) HIDIVE [eng, ASS], Arabic [ara, ASS], Francais(France) [fre, ASS], Deutsch [ger, ASS], Italiano [ita, ASS], Espanol(Espana) [spa, ASS], Espanol [spa, ASS], Espanol HIDIVE [spa, ASS], Portugues(Brasil) [por, ASS], Russian [rus, ASS]
Additional Info
General
Unique ID                                : 280280507906512051747099088294724726714 (0xD2DC0FF2ED4E5AF8248733180B236FBA)
Complete name                            : [Erai-raws] D4DJ - First Mix - 04 [VRV][720p][Multiple Subtitle].mkv
Format                                   : Matroska
Format version                           : Version 4
File size                                : 709 MiB
Duration                                 : 23 min 51 s
Overall bit rate                         : 4 153 kb/s
Encoded date                             : UTC 2020-11-21 21:12:25
Writing application                      : mkvmerge v48.0.0 ('Fortress Around Your Heart') 64-bit
Writing library                          : libebml v1.4.0 + libmatroska v1.6.0
Attachments                              : AdLibRg.ttf / arialbd_0.ttf / Arial_0.ttf / ariblk_0.TTF / BakerSignetBTRoman.ttf / bakrsign.ttf / balonxb.ttf / BRITANIC.TTF / calibri.ttf / comic_0.ttf / DomBoldBT.ttf / domcasn.ttf / georgia_0.ttf / impact_0.ttf / rans___.ttf / SQR721KN.TTF / SqueakyChalkSound.ttf / STAC222N.TTF / staccato 555 bt.ttf / Swis721_BT_Bold.ttf / Swis721_BT_Italic.ttf / Tahoma_0.ttf / TEMPSITC.TTF / timesbd_0.ttf / times_0.ttf / trebuc_0.ttf / VAGRoundedBT.ttf / VEN301DI.ttf / verdana_0.ttf / yoinks.ttf / AdobeArabic-Bold.otf

Video
ID                                       : 1
Format                                   : AVC
Format/Info                              : Advanced Video Codec
Format profile                           : High@L3.1
Format settings                          : CABAC / 4 Ref Frames
Format settings, CABAC                   : Yes
Format settings, ReFrames                : 4 frames
Format settings, GOP                     : M=1, N=24
Codec ID                                 : V_MPEG4/ISO/AVC
Duration                                 : 23 min 51 s
Bit rate                                 : 4 000 kb/s
Width                                    : 1 280 pixels
Height                                   : 720 pixels
Display aspect ratio                     : 16:9
Frame rate mode                          : Constant
Frame rate                               : 23.976 (24000/1001) FPS
Color space                              : YUV
Chroma subsampling                       : 4:2:0
Bit depth                                : 8 bits
Scan type                                : Progressive
Bits/(Pixel*Frame)                       : 0.181
Stream size                              : 680 MiB (96%)
Writing library                          : x264 core 142
Encoding settings                        : cabac=1 / ref=4 / deblock=1:1:1 / analyse=0x3:0x113 / me=umh / subme=8 / psy=1 / psy_rd=0.40:0.00 / mixed_ref=1 / me_range=16 / chroma_me=1 / trellis=1 / 8x8dct=1 / cqm=0 / deadzone=21,11 / fast_pskip=1 / chroma_qp_offset=-2 / threads=10 / lookahead_threads=1 / sliced_threads=0 / nr=0 / decimate=1 / interlaced=0 / bluray_compat=0 / constrained_intra=0 / bframes=0 / weightp=2 / keyint=96 / keyint_min=48 / scenecut=40 / intra_refresh=0 / rc_lookahead=48 / rc=2pass / mbtree=1 / bitrate=4000 / ratetol=1.0 / qcomp=0.60 / qpmin=0 / qpmax=69 / qpstep=4 / cplxblur=20.0 / qblur=0.5 / vbv_maxrate=6000 / vbv_bufsize=9000 / nal_hrd=none / filler=0 / ip_ratio=1.40 / aq=1:0.60
Language                                 : Japanese
Default                                  : Yes
Forced                                   : No

Audio
ID                                       : 2
Format                                   : AAC LC
Format/Info                              : Advanced Audio Codec Low Complexity
Codec ID                                 : A_AAC-2
Duration                                 : 23 min 51 s
Bit rate                                 : 128 kb/s
Channel(s)                               : 2 channels
Channel layout                           : L R
Sampling rate                            : 44.1 kHz
Frame rate                               : 43.066 FPS (1024 SPF)
Compression mode                         : Lossy
Stream size                              : 21.8 MiB (3%)
Language                                 : Japanese
Default                                  : Yes
Forced                                   : No

Text #1
ID                                       : 3
Format                                   : ASS
Codec ID                                 : S_TEXT/ASS
Codec ID/Info                            : Advanced Sub Station Alpha
Duration                                 : 23 min 8 s
Bit rate                                 : 87 b/s
Count of elements                        : 255
Compression mode                         : Lossless
Stream size                              : 14.9 KiB (0%)
Title                                    : English(US)
Language                                 : English
Default                                  : Yes
Forced                                   : No

Text #2
ID                                       : 4
Format                                   : ASS
Codec ID                                 : S_TEXT/ASS
Codec ID/Info                            : Advanced Sub Station Alpha
Duration                                 : 20 min 53 s
Bit rate                                 : 82 b/s
Count of elements                        : 252
Compression mode                         : Lossless
Stream size                              : 12.7 KiB (0%)
Title                                    : English(US) HIDIVE
Language                                 : English
Default                                  : No
Forced                                   : No

Text #3
ID                                       : 5
Format                                   : ASS
Codec ID                                 : S_TEXT/ASS
Codec ID/Info                            : Advanced Sub Station Alpha
Duration                                 : 23 min 9 s
Bit rate                                 : 107 b/s
Count of elements                        : 247
Compression mode                         : Lossless
Stream size                              : 18.3 KiB (0%)
Title                                    : Arabic
Language                                 : Arabic
Default                                  : No
Forced                                   : No

Text #4
ID                                       : 6
Format                                   : ASS
Codec ID                                 : S_TEXT/ASS
Codec ID/Info                            : Advanced Sub Station Alpha
Duration                                 : 20 min 53 s
Bit rate                                 : 97 b/s
Count of elements                        : 214
Compression mode                         : Lossless
Stream size                              : 14.9 KiB (0%)
Title                                    : Francais(France)
Language                                 : French
Default                                  : No
Forced                                   : No

Text #5
ID                                       : 7
Format                                   : ASS
Codec ID                                 : S_TEXT/ASS
Codec ID/Info                            : Advanced Sub Station Alpha
Duration                                 : 20 min 53 s
Bit rate                                 : 102 b/s
Count of elements                        : 283
Compression mode                         : Lossless
Stream size                              : 15.7 KiB (0%)
Title                                    : Deutsch
Language                                 : German
Default                                  : No
Forced                                   : No

Text #6
ID                                       : 8
Format                                   : ASS
Codec ID                                 : S_TEXT/ASS
Codec ID/Info                            : Advanced Sub Station Alpha
Duration                                 : 20 min 54 s
Bit rate                                 : 95 b/s
Count of elements                        : 247
Compression mode                         : Lossless
Stream size                              : 14.6 KiB (0%)
Title                                    : Italiano
Language                                 : Italian
Default                                  : No
Forced                                   : No

Text #7
ID                                       : 9
Format                                   : ASS
Codec ID                                 : S_TEXT/ASS
Codec ID/Info                            : Advanced Sub Station Alpha
Duration                                 : 20 min 53 s
Bit rate                                 : 84 b/s
Count of elements                        : 209
Compression mode                         : Lossless
Stream size                              : 12.9 KiB (0%)
Title                                    : Espanol(Espana)
Language                                 : Spanish
Default                                  : No
Forced                                   : No

Text #8
ID                                       : 10
Format                                   : ASS
Codec ID                                 : S_TEXT/ASS
Codec ID/Info                            : Advanced Sub Station Alpha
Duration                                 : 20 min 53 s
Bit rate                                 : 88 b/s
Count of elements                        : 223
Compression mode                         : Lossless
Stream size                              : 13.6 KiB (0%)
Title                                    : Espanol
Language                                 : Spanish
Default                                  : No
Forced                                   : No

Text #9
ID                                       : 11
Format                                   : ASS
Codec ID                                 : S_TEXT/ASS
Codec ID/Info                            : Advanced Sub Station Alpha
Duration                                 : 20 min 53 s
Bit rate                                 : 77 b/s
Count of elements                        : 230
Compression mode                         : Lossless
Stream size                              : 11.9 KiB (0%)
Title                                    : Espanol HIDIVE
Language                                 : Spanish
Default                                  : No
Forced                                   : No

Text #10
ID                                       : 12
Format                                   : ASS
Codec ID                                 : S_TEXT/ASS
Codec ID/Info                            : Advanced Sub Station Alpha
Duration                                 : 23 min 9 s
Bit rate                                 : 102 b/s
Count of elements                        : 256
Compression mode                         : Lossless
Stream size                              : 17.4 KiB (0%)
Title                                    : Portugues(Brasil)
Language                                 : Portuguese
Default                                  : No
Forced                                   : No

Text #11
ID                                       : 13
Format                                   : ASS
Codec ID                                 : S_TEXT/ASS
Codec ID/Info                            : Advanced Sub Station Alpha
Duration                                 : 23 min 9 s
Bit rate                                 : 114 b/s
Count of elements                        : 258
Compression mode                         : Lossless
Stream size                              : 19.5 KiB (0%)
Title                                    : Russian
Language                                 : Russian
Default                                  : No
Forced                                   : No
beta
Anime DDL+NZB mirror
Current Time: 16/01/2021 14:41



About/FAQs