File Size224.4 MB (235,298,577 bytes)
DownloadAnonFiles | ClickNUpload | DownloadGG | KrakenFiles | MultiUp
  • BdUpload
  • DownAce
  • Fichier
  • FileCloud
  • Filerio
  • FilesCdn
  • IndiShare
  • Kbagi
  • Turbobit
  • UpToBox
  • Uppit
| ZippyShare
HashesCRC32: F6591027, MD5: 7C09BBEE7517AD553891FDCABD936364, SHA1: F74B199757FFD760808EE99C5911F66E7F182AAE, SHA256: 623C42122FEAA7CDC991E9A25E856E10E0B5D72F3184931BF7DB98D36A10F418, ED2K: 9F7E931E68E96FF693CE2EA560BF798C
Screenshots
screenshotscreenshotscreenshotscreenshotscreenshot
SubtitlesAll Attachments | English [eng, ASS]
Additional Info
General
Unique ID                                : 245184363206198871365930825480390859064 (0xB874CA6B472F9A583D5D64ABCC885938)
Complete name                            : [Erai-raws] Chimimo - 08 [720p][F6591027].mkv
Format                                   : Matroska
Format version                           : Version 4
File size                                : 224 MiB
Duration                                 : 24 min 22 s
Overall bit rate                         : 1 287 kb/s
Encoded date                             : UTC 2022-08-25 17:30:44
Writing application                      : mkvmerge v68.0.0 ('The Curtain') 64-bit
Writing library                          : libebml v1.4.2 + libmatroska v1.6.4
Attachments                              : BakerSignetBT.ttf / BakerSignetBTRoman.ttf / BRADHITC.ttf / calibrib.ttf / calibrib_0.ttf / calibril_0.ttf / calibri_0.ttf / comicbd.ttf / comic_0.ttf / MeadBold.ttf / staccato 555 bt.ttf / Swis721_BT_Bold.ttf / Swis721_BT_Bold_1.ttf / tahomabd_0.ttf / Tahoma_1.ttf / TEMPSITC.ttf

Video
ID                                       : 1
Format                                   : AVC
Format/Info                              : Advanced Video Codec
Format profile                           : High@L4.1
Format settings                          : CABAC / 6 Ref Frames
Format settings, CABAC                   : Yes
Format settings, Reference frames        : 6 frames
Codec ID                                 : V_MPEG4/ISO/AVC
Duration                                 : 24 min 21 s
Bit rate                                 : 1 082 kb/s
Width                                    : 1 280 pixels
Height                                   : 720 pixels
Display aspect ratio                     : 16:9
Frame rate mode                          : Constant
Frame rate                               : 23.976 (24000/1001) FPS
Color space                              : YUV
Chroma subsampling                       : 4:2:0
Bit depth                                : 8 bits
Scan type                                : Progressive
Bits/(Pixel*Frame)                       : 0.049
Stream size                              : 188 MiB (84%)
Writing library                          : x264 core 148
Encoding settings                        : cabac=1 / ref=6 / deblock=1:0:0 / analyse=0x3:0x113 / me=hex / subme=7 / psy=1 / psy_rd=1.00:0.00 / mixed_ref=1 / me_range=16 / chroma_me=1 / trellis=1 / 8x8dct=1 / cqm=0 / deadzone=21,11 / fast_pskip=1 / chroma_qp_offset=-2 / threads=22 / lookahead_threads=3 / sliced_threads=0 / nr=0 / decimate=1 / interlaced=0 / bluray_compat=0 / constrained_intra=0 / bframes=3 / b_pyramid=2 / b_adapt=1 / b_bias=0 / direct=1 / weightb=1 / open_gop=0 / weightp=2 / keyint=90 / keyint_min=9 / scenecut=0 / intra_refresh=0 / rc_lookahead=40 / rc=crf / mbtree=1 / crf=22.0 / qcomp=0.60 / qpmin=0 / qpmax=69 / qpstep=4 / vbv_maxrate=11100 / vbv_bufsize=111000 / crf_max=0.0 / nal_hrd=none / filler=0 / ip_ratio=1.40 / aq=1:1.00
Language                                 : Japanese
Default                                  : Yes
Forced                                   : No

Audio
ID                                       : 2
Format                                   : AAC LC
Format/Info                              : Advanced Audio Codec Low Complexity
Codec ID                                 : A_AAC-2
Duration                                 : 24 min 22 s
Bit rate                                 : 157 kb/s
Channel(s)                               : 2 channels
Channel layout                           : L R
Sampling rate                            : 48.0 kHz
Frame rate                               : 46.875 FPS (1024 SPF)
Compression mode                         : Lossy
Delay relative to video                  : -1 s 37 ms
Stream size                              : 27.4 MiB (12%)
Language                                 : Japanese
Default                                  : Yes
Forced                                   : No

Text
ID                                       : 3
Format                                   : ASS
Codec ID                                 : S_TEXT/ASS
Codec ID/Info                            : Advanced Sub Station Alpha
Duration                                 : 23 min 49 s
Bit rate                                 : 117 b/s
Count of elements                        : 370
Compression mode                         : Lossless
Stream size                              : 20.5 KiB (0%)
Title                                    : English
Language                                 : English
Default                                  : Yes
Forced                                   : No
beta
Anime DDL+NZB mirror
Current Time: 24/06/2024 13:37



About/FAQs

Discord