[Erai-raws] Ballroom e Youkoso - 12 [720p AVC-YUV444P10][E-AC3][435DA33D].mkv


File Size371.2 MB (389,238,384 bytes)
DownloadClickNUpload | Go4Up
  • Ezfile
  • FileFactory
  • FilePup
  • MegaShares
  • Nitroflare
  • NowDownload
  • Oboom
  • OpenLoad
  • Rapidgator
  • Share-Online
  • ToutBox
  • Uplea
  • Uploadable
  • Uppit
  • UsersCloud
| Jheberg | MultiUp | OpenLoad | SolidFiles | Upfile.mobi
Sendspace: Part1, Part2
HashesCRC32: 435DA33D, MD5: FFA1CF6AD72F6B71B47541D8472CB8B9, SHA1: E93D550359243929D5E41600B4999DB78965FD44, SHA256: FD6F43D6E682315F1FB14081001289E43BCB0582F44785E3D689D86B696A10FB, ED2K: B86EA25FEFFB1D77B8E73BA0B93F534D
Screenshots
screenshotscreenshotscreenshotscreenshotscreenshot
SubtitlesAll Attachments | eng [ASS]
Additional Info
General
Unique ID                                : 185584705861144962630844201941385803767 (0x8B9E5070F9075B0789EB3ADB0056F7F7)
Complete name                            : [Erai-raws] Ballroom e Youkoso - 12 [720p AVC-YUV444P10][E-AC3][435DA33D].mkv
Format                                   : Matroska
Format version                           : Version 4 / Version 2
File size                                : 371 MiB
Duration                                 : 24 min 10 s
Overall bit rate                         : 2 147 kb/s
Encoded date                             : UTC 2017-09-24 17:47:44
Writing application                      : mkvmerge v13.0.0 ('The Juggler') 64bit
Writing library                          : libebml v1.3.4 + libmatroska v1.4.5

Video
ID                                       : 1
Format                                   : AVC
Format/Info                              : Advanced Video Codec
Format profile                           : High 4:4:4 Predictive@L5
Format settings, CABAC                   : Yes
Format settings, ReFrames                : 16 frames
Codec ID                                 : V_MPEG4/ISO/AVC
Duration                                 : 24 min 10 s
Bit rate                                 : 1 922 kb/s
Width                                    : 1 280 pixels
Height                                   : 720 pixels
Display aspect ratio                     : 16:9
Frame rate mode                          : Constant
Frame rate                               : 23.976 (24000/1001) FPS
Color space                              : YUV
Chroma subsampling                       : 4:4:4
Bit depth                                : 10 bits
Scan type                                : Progressive
Bits/(Pixel*Frame)                       : 0.087
Stream size                              : 332 MiB (89%)
Writing library                          : x264 core 150 r2833+58 090e24f t_mod_Custom [10-bit@all X86_64]
Encoding settings                        : cabac=1 / ref=16 / deblock=1:-2:-2 / analyse=0x3:0x133 / me=esa / subme=11 / psy=1 / fade_compensate=0.00 / psy_rd=0.50:0.00 / mixed_ref=1 / me_range=28 / chroma_me=1 / trellis=2 / 8x8dct=1 / cqm=0 / deadzone=21,11 / fast_pskip=0 / chroma_qp_offset=4 / threads=34 / lookahead_threads=5 / sliced_threads=0 / nr=0 / decimate=1 / interlaced=0 / bluray_compat=0 / constrained_intra=0 / fgo=0 / bframes=16 / b_pyramid=2 / b_adapt=2 / b_bias=0 / direct=3 / weightb=1 / open_gop=1 / weightp=2 / keyint=250 / keyint_min=23 / scenecut=40 / intra_refresh=0 / rc_lookahead=60 / rc=crf / mbtree=1 / crf=14.0000 / qcomp=0.60 / qpmin=0:0:0 / qpmax=81:81:81 / qpstep=4 / vbv_maxrate=540000 / vbv_bufsize=540000 / crf_max=0.0 / nal_hrd=none / filler=0 / ip_ratio=1.40 / aq=3:0.70 / aq-sensitivity=10.00 / aq-factor=1.00:1.00:1.00 / aq2=0 / aq3=0
Language                                 : Japanese
Default                                  : Yes
Forced                                   : No
Color range                              : Limited
Color primaries                          : BT.709
Transfer characteristics                 : BT.709
Matrix coefficients                      : BT.709

Audio
ID                                       : 2
Format                                   : E-AC-3
Format/Info                              : Enhanced Audio Coding 3
Format settings, Endianness              : Big
Codec ID                                 : A_EAC3
Duration                                 : 24 min 9 s
Bit rate mode                            : Constant
Bit rate                                 : 224 kb/s
Channel(s)                               : 2 channels
Channel positions                        : Front: L R
Sampling rate                            : 48.0 kHz
Frame rate                               : 187.500 FPS (256 spf)
Compression mode                         : Lossy
Stream size                              : 38.7 MiB (10%)
Language                                 : Japanese
Default                                  : Yes
Forced                                   : No

Text
ID                                       : 3
Format                                   : ASS
Codec ID                                 : S_TEXT/ASS
Codec ID/Info                            : Advanced Sub Station Alpha
Duration                                 : 23 min 51 s
Bit rate                                 : 88 b/s
Count of elements                        : 305
Compression mode                         : Lossless
Stream size                              : 15.5 KiB (0%)
Language                                 : English
Default                                  : Yes
Forced                                   : No

Other Files in this Torrent
[Erai-raws] Ballroom e Youkoso - 12 [720p AVC-YUV444P10][E-AC3][435DA33D].mkv
beta
Anime DDL+NZB mirror
Current Time: 28/05/2020 04:51



About/FAQs