File Size87.55 MB (91,802,219 bytes)
DownloadAnonFiles | ClickNUpload | DropAPK | Free | MultiUp
  • BdUpload
  • DownAce
  • Fichier
  • FileCloud
  • Filerio
  • FilesCdn
  • IndiShare
  • Kbagi
  • Turbobit
  • UpToBox
  • Uppit
| SolidFiles | ZippyShare
HashesCRC32: 116231D9, MD5: C28EB12AEF23145C42EBEB1ED169082C, SHA1: 1A198440685BBDE2B00EE26F1326E7BB5E4B9AF3, SHA256: D7F6CC954695DB178B249F1CB2355148E6AD24D0A621D5B4D50F613D358BC7DF, ED2K: 043656C39232219558FF85E4495EAC38
Screenshots
screenshotscreenshotscreenshot
SubtitlesAll Attachments | English(US) [eng, ASS], Arabic [ara, ASS], Francais(France) [fre, ASS], Deutsch [ger, ASS], Italiano [ita, ASS], Espanol [spa, ASS], Portugues(Brasil) [por, ASS], Russian [rus, ASS]
Additional Info
General
Unique ID                                : 43697590430344610958164095294641235724 (0x20DFD98BE2BFC686EF7E6EFD7BDF670C)
Complete name                            : [Erai-raws] Abciee Shuugyou Nikki - 02 [720p][Multiple Subtitle].mkv
Format                                   : Matroska
Format version                           : Version 4
File size                                : 87.5 MiB
Duration                                 : 2 min 50 s
Overall bit rate                         : 4 317 kb/s
Encoded date                             : UTC 2021-01-21 23:13:53
Writing application                      : mkvmerge v48.0.0 ('Fortress Around Your Heart') 64-bit
Writing library                          : libebml v1.4.0 + libmatroska v1.6.0
Attachments                              : Arial_0.ttf / calibri.ttf / comic_0.ttf / georgia_0.ttf / impact_0.ttf / Tahoma_0.ttf / times_0.ttf / trebuc_0.ttf / verdana_0.ttf / AdobeArabic-Bold.otf

Video
ID                                       : 1
Format                                   : AVC
Format/Info                              : Advanced Video Codec
Format profile                           : High@L4
Format settings                          : CABAC / 6 Ref Frames
Format settings, CABAC                   : Yes
Format settings, ReFrames                : 6 frames
Codec ID                                 : V_MPEG4/ISO/AVC
Duration                                 : 2 min 50 s
Bit rate                                 : 4 000 kb/s
Width                                    : 1 280 pixels
Height                                   : 720 pixels
Display aspect ratio                     : 16:9
Frame rate mode                          : Constant
Frame rate                               : 23.976 (24000/1001) FPS
Color space                              : YUV
Chroma subsampling                       : 4:2:0
Bit depth                                : 8 bits
Scan type                                : Progressive
Bits/(Pixel*Frame)                       : 0.181
Stream size                              : 81.1 MiB (93%)
Writing library                          : x264 core 142
Encoding settings                        : cabac=1 / ref=6 / deblock=1:1:1 / analyse=0x3:0x113 / me=umh / subme=8 / psy=1 / psy_rd=0.40:0.00 / mixed_ref=1 / me_range=16 / chroma_me=1 / trellis=1 / 8x8dct=1 / cqm=0 / deadzone=21,11 / fast_pskip=1 / chroma_qp_offset=-2 / threads=10 / lookahead_threads=1 / sliced_threads=0 / nr=0 / decimate=1 / interlaced=0 / bluray_compat=0 / constrained_intra=0 / bframes=0 / weightp=2 / keyint=96 / keyint_min=48 / scenecut=40 / intra_refresh=0 / rc_lookahead=48 / rc=2pass / mbtree=1 / bitrate=4000 / ratetol=1.0 / qcomp=0.60 / qpmin=0 / qpmax=69 / qpstep=4 / cplxblur=20.0 / qblur=0.5 / vbv_maxrate=6000 / vbv_bufsize=9000 / nal_hrd=none / filler=0 / ip_ratio=1.40 / aq=1:0.60
Language                                 : Japanese
Default                                  : Yes
Forced                                   : No

Audio
ID                                       : 2
Format                                   : AAC LC
Format/Info                              : Advanced Audio Codec Low Complexity
Codec ID                                 : A_AAC-2
Duration                                 : 2 min 50 s
Bit rate                                 : 128 kb/s
Channel(s)                               : 2 channels
Channel layout                           : L R
Sampling rate                            : 44.1 kHz
Frame rate                               : 43.066 FPS (1024 SPF)
Compression mode                         : Lossy
Stream size                              : 2.60 MiB (3%)
Language                                 : Japanese
Default                                  : Yes
Forced                                   : No

Text #1
ID                                       : 3
Format                                   : ASS
Codec ID                                 : S_TEXT/ASS
Codec ID/Info                            : Advanced Sub Station Alpha
Duration                                 : 2 min 44 s
Bit rate                                 : 467 b/s
Count of elements                        : 86
Compression mode                         : Lossless
Stream size                              : 9.42 KiB (0%)
Title                                    : English(US)
Language                                 : English
Default                                  : Yes
Forced                                   : No

Text #2
ID                                       : 4
Format                                   : ASS
Codec ID                                 : S_TEXT/ASS
Codec ID/Info                            : Advanced Sub Station Alpha
Duration                                 : 2 min 46 s
Bit rate                                 : 536 b/s
Count of elements                        : 87
Compression mode                         : Lossless
Stream size                              : 10.9 KiB (0%)
Title                                    : Arabic
Language                                 : Arabic
Default                                  : No
Forced                                   : No

Text #3
ID                                       : 5
Format                                   : ASS
Codec ID                                 : S_TEXT/ASS
Codec ID/Info                            : Advanced Sub Station Alpha
Duration                                 : 2 min 17 s
Bit rate                                 : 168 b/s
Count of elements                        : 39
Compression mode                         : Lossless
Stream size                              : 2.82 KiB (0%)
Title                                    : Francais(France)
Language                                 : French
Default                                  : No
Forced                                   : No

Text #4
ID                                       : 6
Format                                   : ASS
Codec ID                                 : S_TEXT/ASS
Codec ID/Info                            : Advanced Sub Station Alpha
Duration                                 : 2 min 44 s
Bit rate                                 : 202 b/s
Count of elements                        : 52
Compression mode                         : Lossless
Stream size                              : 4.08 KiB (0%)
Title                                    : Deutsch
Language                                 : German
Default                                  : No
Forced                                   : No

Text #5
ID                                       : 7
Format                                   : ASS
Codec ID                                 : S_TEXT/ASS
Codec ID/Info                            : Advanced Sub Station Alpha
Duration                                 : 2 min 44 s
Bit rate                                 : 480 b/s
Count of elements                        : 86
Compression mode                         : Lossless
Stream size                              : 9.66 KiB (0%)
Title                                    : Italiano
Language                                 : Italian
Default                                  : No
Forced                                   : No

Text #6
ID                                       : 8
Format                                   : ASS
Codec ID                                 : S_TEXT/ASS
Codec ID/Info                            : Advanced Sub Station Alpha
Duration                                 : 2 min 21 s
Bit rate                                 : 213 b/s
Count of elements                        : 49
Compression mode                         : Lossless
Stream size                              : 3.69 KiB (0%)
Title                                    : Espanol
Language                                 : Spanish
Default                                  : No
Forced                                   : No

Text #7
ID                                       : 9
Format                                   : ASS
Codec ID                                 : S_TEXT/ASS
Codec ID/Info                            : Advanced Sub Station Alpha
Duration                                 : 2 min 44 s
Bit rate                                 : 455 b/s
Count of elements                        : 85
Compression mode                         : Lossless
Stream size                              : 9.16 KiB (0%)
Title                                    : Portugues(Brasil)
Language                                 : Portuguese
Default                                  : No
Forced                                   : No

Text #8
ID                                       : 10
Format                                   : ASS
Codec ID                                 : S_TEXT/ASS
Codec ID/Info                            : Advanced Sub Station Alpha
Duration                                 : 2 min 44 s
Bit rate                                 : 605 b/s
Count of elements                        : 86
Compression mode                         : Lossless
Stream size                              : 12.2 KiB (0%)
Title                                    : Russian
Language                                 : Russian
Default                                  : No
Forced                                   : No
beta
Anime DDL+NZB mirror
Current Time: 20/04/2021 14:06



About/FAQs