File Size904.2 MB (948,085,488 bytes)
DownloadClickNUpload | Jheberg | MultiUp
  • ClickNupload
  • Fichier
  • Filerio
  • Free
  • Fufox
  • HugeFiles
  • Mightyupload
  • ToutBox
  • Turbobit
  • UpToBox
  • Uplea
  • UploadBaz
  • Uploadable
  • Uploaded
  • Uppit
  • Userscloud
| OpenLoad
Sendspace: Part1, Part2, Part3, Part4
SolidFiles: Part1, Part2
HashesCRC32: CE479824, MD5: AA1A5C8520C96E71C74AA880955DFD99, SHA1: DBDB28D803D02AF5BBCDB84C6D4684BE00DDFC0D, SHA256: 6334A69423FEB200FF57E0EE3D931AE4D7288B93D85952F56FE38AC127FCF65F, ED2K: AC77ADE6189BA00772759CF91E6ACFFE
Screenshots
screenshotscreenshotscreenshotscreenshotscreenshot
SubtitlesAll Attachments | English Subtitles by me [eng, ASS], English Subtitles by Erai Raws [eng, ASS], Arabic [eng, ASS], Deutsch [eng, ASS], Espaأ±ol(Espaأ±a) [eng, ASS], Espaأ±ol [eng, ASS], Franأ§ais(France) [eng, ASS], Italiano [eng, ASS], Portuguأھs(Brasil) [eng, ASS]
Additional Info
General
Unique ID                                : 243849478581392931329049029260817512251 (0xB773B386950D01C4B423ED2BAA04B73B)
Complete name                            : Episode x265 Filtered.mkv
Format                                   : Matroska
Format version                           : Version 4 / Version 2
File size                                : 904 MiB
Duration                                 : 24 min 12 s
Overall bit rate                         : 5 223 kb/s
Encoded date                             : UTC 2017-11-10 16:26:45
Writing application                      : mkvmerge v16.0.0 ('Protest') 64-bit
Writing library                          : libebml v1.3.5 + libmatroska v1.4.8
Attachments                              : amakara_sample.ttf / American Captain.ttf / CronosPro-Semibold.ttf / FOT-MANYOGYOSHOSTD-E-EN_1.TTF / GandhiSans-Bold_1.otf / GandhiSans-BoldItalic_1.otf / GMARUGOPRO-EN-B_0.TTF / GosmickSansBold_0.ttf / HANDA__.TTF / impresja.ttf / IwaOMinPro-Hv-Fate_2.ttf / Ounen-mouhitsu.otf / RaysHand-Regular_2.ttf
Writing frontend                         : StaxRip v1.7.0.0

Video
ID                                       : 1
Format                                   : HEVC
Format/Info                              : High Efficiency Video Coding
Format profile                           : Main 10@L4@Main
Codec ID                                 : V_MPEGH/ISO/HEVC
Duration                                 : 24 min 12 s
Bit rate                                 : 5 036 kb/s
Width                                    : 1 920 pixels
Height                                   : 1 080 pixels
Display aspect ratio                     : 16:9
Frame rate mode                          : Constant
Frame rate                               : 23.976 (24000/1001) FPS
Color space                              : YUV
Chroma subsampling                       : 4:2:0
Bit depth                                : 10 bits
Bits/(Pixel*Frame)                       : 0.101
Stream size                              : 872 MiB (96%)
Writing library                          : x265 2.5+14-2718cb5dd67f:[Windows][GCC 7.1.0][64 bit] 10bit
Encoding settings                        : cpuid=1173503 / frame-threads=2 / numa-pools=4 / wpp / no-pmode / no-pme / no-psnr / no-ssim / log-level=2 / input-csp=1 / input-res=1920x1080 / interlace=0 / total-frames=34814 / level-idc=0 / high-tier=1 / uhd-bd=0 / ref=5 / no-allow-non-conformance / no-repeat-headers / annexb / no-aud / no-hrd / info / hash=0 / no-temporal-layers / open-gop / min-keyint=23 / keyint=250 / bframes=8 / b-adapt=2 / b-pyramid / bframe-bias=0 / rc-lookahead=40 / lookahead-slices=0 / scenecut=40 / no-intra-refresh / ctu=64 / min-cu-size=8 / rect / amp / max-tu-size=32 / tu-inter-depth=3 / tu-intra-depth=3 / limit-tu=4 / rdoq-level=2 / dynamic-rd=0.00 / no-ssim-rd / signhide / no-tskip / nr-intra=0 / nr-inter=0 / no-constrained-intra / strong-intra-smoothing / max-merge=4 / limit-refs=1 / limit-modes / me=3 / subme=4 / merange=57 / temporal-mvp / weightp / weightb / no-analyze-src-pics / deblock=0:0 / sao / no-sao-non-deblock / rd=6 / no-early-skip / rskip / no-fast-intra / no-tskip-fast / no-cu-lossless / b-intra / no-splitrd-skip / rdpenalty=0 / psy-rd=2.00 / psy-rdoq=1.00 / no-rd-refine / analysis-reuse-mode=0 / no-lossless / cbqpoffs=0 / crqpoffs=0 / rc=crf / crf=16.0 / qcomp=0.60 / qpstep=4 / stats-write=0 / stats-read=0 / ipratio=1.40 / pbratio=1.30 / aq-mode=1 / aq-strength=1.00 / cutree / zone-count=0 / no-strict-cbr / qg-size=32 / no-rc-grain / qpmax=69 / qpmin=0 / no-const-vbv / sar=0 / overscan=0 / videoformat=5 / range=0 / colorprim=2 / transfer=2 / colormatrix=2 / chromaloc=0 / display-window=0 / max-cll=0,0 / min-luma=0 / max-luma=1023 / log2-max-poc-lsb=8 / vui-timing-info / vui-hrd-info / slices=1 / opt-qp-pps / opt-ref-list-length-pps / no-multi-pass-opt-rps / scenecut-bias=0.05 / no-opt-cu-delta-qp / no-aq-motion / no-hdr / no-hdr-opt / no-dhdr10-opt / analysis-reuse-level=5 / scale-factor=0 / refine-intra=0 / refine-inter=0 / refine-mv=0 / no-limit-sao / ctu-info=0
Default                                  : Yes
Forced                                   : No

Audio
ID                                       : 2
Format                                   : AAC
Format/Info                              : Advanced Audio Codec
Format profile                           : LC
Codec ID                                 : A_AAC
Duration                                 : 24 min 11 s
Bit rate                                 : 128 kb/s
Channel(s)                               : 2 channels
Channel positions                        : Front: L R
Sampling rate                            : 44.1 kHz
Frame rate                               : 43.066 FPS (1024 spf)
Compression mode                         : Lossy
Delay relative to video                  : 10 ms
Stream size                              : 22.2 MiB (2%)
Language                                 : English
Default                                  : No
Forced                                   : No

Text #1
ID                                       : 3
Format                                   : ASS
Codec ID                                 : S_TEXT/ASS
Codec ID/Info                            : Advanced Sub Station Alpha
Duration                                 : 24 min 10 s
Bit rate                                 : 1 042 b/s
Count of elements                        : 1471
Compression mode                         : Lossless
Stream size                              : 185 KiB (0%)
Title                                    : English Subtitles by me
Language                                 : English
Default                                  : Yes
Forced                                   : No

Text #2
ID                                       : 4
Format                                   : ASS
Codec ID                                 : S_TEXT/ASS
Codec ID/Info                            : Advanced Sub Station Alpha
Duration                                 : 24 min 9 s
Bit rate                                 : 184 b/s
Count of elements                        : 454
Compression mode                         : Lossless
Stream size                              : 32.6 KiB (0%)
Title                                    : English Subtitles by Erai Raws
Language                                 : English
Default                                  : No
Forced                                   : No

Text #3
ID                                       : 5
Format                                   : ASS
Codec ID                                 : S_TEXT/ASS
Codec ID/Info                            : Advanced Sub Station Alpha
Duration                                 : 24 min 9 s
Bit rate                                 : 216 b/s
Count of elements                        : 434
Compression mode                         : Lossless
Stream size                              : 38.4 KiB (0%)
Title                                    : Arabic
Language                                 : English
Default                                  : No
Forced                                   : No

Text #4
ID                                       : 6
Format                                   : ASS
Codec ID                                 : S_TEXT/ASS
Codec ID/Info                            : Advanced Sub Station Alpha
Duration                                 : 24 min 9 s
Bit rate                                 : 163 b/s
Count of elements                        : 421
Compression mode                         : Lossless
Stream size                              : 29.0 KiB (0%)
Title                                    : Deutsch
Language                                 : English
Default                                  : No
Forced                                   : No

Text #5
ID                                       : 7
Format                                   : ASS
Codec ID                                 : S_TEXT/ASS
Codec ID/Info                            : Advanced Sub Station Alpha
Duration                                 : 24 min 9 s
Bit rate                                 : 154 b/s
Count of elements                        : 414
Compression mode                         : Lossless
Stream size                              : 27.3 KiB (0%)
Title                                    : Espaأ±ol(Espaأ±a)
Language                                 : English
Default                                  : No
Forced                                   : No

Text #6
ID                                       : 8
Format                                   : ASS
Codec ID                                 : S_TEXT/ASS
Codec ID/Info                            : Advanced Sub Station Alpha
Duration                                 : 24 min 9 s
Bit rate                                 : 154 b/s
Count of elements                        : 412
Compression mode                         : Lossless
Stream size                              : 27.4 KiB (0%)
Title                                    : Espaأ±ol
Language                                 : English
Default                                  : No
Forced                                   : No

Text #7
ID                                       : 9
Format                                   : ASS
Codec ID                                 : S_TEXT/ASS
Codec ID/Info                            : Advanced Sub Station Alpha
Duration                                 : 24 min 9 s
Bit rate                                 : 144 b/s
Count of elements                        : 383
Compression mode                         : Lossless
Stream size                              : 25.6 KiB (0%)
Title                                    : Franأ§ais(France)
Language                                 : English
Default                                  : No
Forced                                   : No

Text #8
ID                                       : 10
Format                                   : ASS
Codec ID                                 : S_TEXT/ASS
Codec ID/Info                            : Advanced Sub Station Alpha
Duration                                 : 24 min 9 s
Bit rate                                 : 160 b/s
Count of elements                        : 446
Compression mode                         : Lossless
Stream size                              : 28.4 KiB (0%)
Title                                    : Italiano
Language                                 : English
Default                                  : No
Forced                                   : No

Text #9
ID                                       : 11
Format                                   : ASS
Codec ID                                 : S_TEXT/ASS
Codec ID/Info                            : Advanced Sub Station Alpha
Duration                                 : 24 min 9 s
Bit rate                                 : 187 b/s
Count of elements                        : 448
Compression mode                         : Lossless
Stream size                              : 33.1 KiB (0%)
Title                                    : Portuguأھs(Brasil)
Language                                 : English
Default                                  : No
Forced                                   : No

Menu
00:00:00.000                             : :Prologue
00:01:15.180                             : :Opening
00:02:45.280                             : :Part 1
00:13:18.104                             : :Part 2
00:21:40.868                             : :Ending
00:23:10.800                             : :Epilogue
00:24:04.000                             : :Preview
beta
Anime DDL+NZB mirror
Current Time: 21/11/2017 06:28



About/FAQs