File Size1.028 GB (1,104,038,703 bytes)
DownloadClickNUpload: Part1, Part2
Jheberg: Part1, Part2
MultiUp: Part1
  • ClickNupload
  • Fichier
  • Filerio
  • Free
  • Fufox
  • HugeFiles
  • Mightyupload
  • ToutBox
  • Turbobit
  • UpToBox
  • Uplea
  • UploadBaz
  • Uploadable
  • Uploaded
  • Uppit
  • Userscloud
, Part2
  • ClickNupload
  • Fichier
  • Filerio
  • Free
  • Fufox
  • HugeFiles
  • Mightyupload
  • ToutBox
  • Turbobit
  • UpToBox
  • Uplea
  • UploadBaz
  • Uploadable
  • Uploaded
  • Uppit
  • Userscloud

OpenLoad: Part1, Part2
Sendspace: Part1, Part2, Part3, Part4
SolidFiles: Part1, Part2, Part3
HashesCRC32: 4677B886, MD5: F26E1D6286143C8FF549F7EDEEDAD62A, SHA1: 489FF0B4D1473A4FE7EBD6EA5593E0167449A2DA, SHA256: 4BD2CC317E7D8CA4DAB0FB2AB6768D77197CF1EFD8A9AABAA4DEB0E3B062C0E7, ED2K: 647BB9D79A067A302EEB171AEF3997BC
Screenshots
screenshotscreenshotscreenshotscreenshotscreenshot
SubtitlesAll Attachments | English Subtitles by me [eng, ASS], English Subtitles by Erai Raws [eng, ASS], Arabic [eng, ASS], Deutsch [eng, ASS], Espaأ±ol(Espaأ±a) [eng, ASS], Espaأ±ol [eng, ASS], Franأ§ais(France) [eng, ASS], Italiano [eng, ASS], Portuguأھs(Brasil) [eng, ASS]
Additional Info
General
Unique ID                                : 240299651959484040064389065474220305622 (0xB4C8078F813D5D81B2365C9DA7452CD6)
Complete name                            : Episode 6 x264 filtered.mkv
Format                                   : Matroska
Format version                           : Version 4 / Version 2
File size                                : 1.03 GiB
Duration                                 : 24 min 12 s
Overall bit rate                         : 6 083 kb/s
Encoded date                             : UTC 2017-11-10 16:24:36
Writing application                      : mkvmerge v16.0.0 ('Protest') 64-bit
Writing library                          : libebml v1.3.5 + libmatroska v1.4.8
Attachments                              : amakara_sample.ttf / American Captain.ttf / CronosPro-Semibold.ttf / FOT-MANYOGYOSHOSTD-E-EN_1.TTF / GandhiSans-Bold_1.otf / GandhiSans-BoldItalic_1.otf / GMARUGOPRO-EN-B_0.TTF / GosmickSansBold_0.ttf / HANDA__.TTF / impresja.ttf / IwaOMinPro-Hv-Fate_2.ttf / Ounen-mouhitsu.otf / RaysHand-Regular_2.ttf
Writing frontend                         : StaxRip v1.7.0.0

Video
ID                                       : 1
Format                                   : AVC
Format/Info                              : Advanced Video Codec
Format profile                           : High 10@L5.1
Format settings, CABAC                   : Yes
Format settings, ReFrames                : 16 frames
Codec ID                                 : V_MPEG4/ISO/AVC
Duration                                 : 24 min 12 s
Bit rate                                 : 5 896 kb/s
Width                                    : 1 920 pixels
Height                                   : 1 080 pixels
Display aspect ratio                     : 16:9
Frame rate mode                          : Constant
Frame rate                               : 23.976 (24000/1001) FPS
Color space                              : YUV
Chroma subsampling                       : 4:2:0
Bit depth                                : 10 bits
Scan type                                : Progressive
Bits/(Pixel*Frame)                       : 0.119
Stream size                              : 1 021 MiB (97%)
Writing library                          : x264 core 152 r2851 ba24899
Encoding settings                        : cabac=1 / ref=16 / deblock=1:0:0 / analyse=0x3:0x133 / me=umh / subme=10 / psy=1 / psy_rd=1.00:0.00 / mixed_ref=1 / me_range=24 / chroma_me=1 / trellis=2 / 8x8dct=1 / cqm=0 / deadzone=21,11 / fast_pskip=1 / chroma_qp_offset=-2 / threads=6 / lookahead_threads=1 / sliced_threads=0 / nr=0 / decimate=1 / interlaced=0 / bluray_compat=0 / constrained_intra=0 / bframes=8 / b_pyramid=2 / b_adapt=2 / b_bias=0 / direct=3 / weightb=1 / open_gop=0 / weightp=2 / keyint=250 / keyint_min=23 / scenecut=40 / intra_refresh=0 / rc_lookahead=60 / rc=crf / mbtree=1 / crf=15.0 / qcomp=0.60 / qpmin=0 / qpmax=81 / qpstep=4 / ip_ratio=1.40 / aq=1:1.00
Default                                  : Yes
Forced                                   : No

Audio
ID                                       : 2
Format                                   : AAC
Format/Info                              : Advanced Audio Codec
Format profile                           : LC
Codec ID                                 : A_AAC
Duration                                 : 24 min 11 s
Bit rate                                 : 128 kb/s
Channel(s)                               : 2 channels
Channel positions                        : Front: L R
Sampling rate                            : 44.1 kHz
Frame rate                               : 43.066 FPS (1024 spf)
Compression mode                         : Lossy
Delay relative to video                  : 10 ms
Stream size                              : 22.2 MiB (2%)
Language                                 : English
Default                                  : No
Forced                                   : No

Text #1
ID                                       : 3
Format                                   : ASS
Codec ID                                 : S_TEXT/ASS
Codec ID/Info                            : Advanced Sub Station Alpha
Duration                                 : 24 min 10 s
Bit rate                                 : 1 042 b/s
Count of elements                        : 1471
Compression mode                         : Lossless
Stream size                              : 185 KiB (0%)
Title                                    : English Subtitles by me
Language                                 : English
Default                                  : No
Forced                                   : No

Text #2
ID                                       : 4
Format                                   : ASS
Codec ID                                 : S_TEXT/ASS
Codec ID/Info                            : Advanced Sub Station Alpha
Duration                                 : 24 min 9 s
Bit rate                                 : 184 b/s
Count of elements                        : 454
Compression mode                         : Lossless
Stream size                              : 32.6 KiB (0%)
Title                                    : English Subtitles by Erai Raws
Language                                 : English
Default                                  : Yes
Forced                                   : No

Text #3
ID                                       : 5
Format                                   : ASS
Codec ID                                 : S_TEXT/ASS
Codec ID/Info                            : Advanced Sub Station Alpha
Duration                                 : 24 min 9 s
Bit rate                                 : 216 b/s
Count of elements                        : 434
Compression mode                         : Lossless
Stream size                              : 38.4 KiB (0%)
Title                                    : Arabic
Language                                 : English
Default                                  : No
Forced                                   : No

Text #4
ID                                       : 6
Format                                   : ASS
Codec ID                                 : S_TEXT/ASS
Codec ID/Info                            : Advanced Sub Station Alpha
Duration                                 : 24 min 9 s
Bit rate                                 : 163 b/s
Count of elements                        : 421
Compression mode                         : Lossless
Stream size                              : 29.0 KiB (0%)
Title                                    : Deutsch
Language                                 : English
Default                                  : No
Forced                                   : No

Text #5
ID                                       : 7
Format                                   : ASS
Codec ID                                 : S_TEXT/ASS
Codec ID/Info                            : Advanced Sub Station Alpha
Duration                                 : 24 min 9 s
Bit rate                                 : 154 b/s
Count of elements                        : 414
Compression mode                         : Lossless
Stream size                              : 27.3 KiB (0%)
Title                                    : Espaأ±ol(Espaأ±a)
Language                                 : English
Default                                  : No
Forced                                   : No

Text #6
ID                                       : 8
Format                                   : ASS
Codec ID                                 : S_TEXT/ASS
Codec ID/Info                            : Advanced Sub Station Alpha
Duration                                 : 24 min 9 s
Bit rate                                 : 154 b/s
Count of elements                        : 412
Compression mode                         : Lossless
Stream size                              : 27.4 KiB (0%)
Title                                    : Espaأ±ol
Language                                 : English
Default                                  : No
Forced                                   : No

Text #7
ID                                       : 9
Format                                   : ASS
Codec ID                                 : S_TEXT/ASS
Codec ID/Info                            : Advanced Sub Station Alpha
Duration                                 : 24 min 9 s
Bit rate                                 : 144 b/s
Count of elements                        : 383
Compression mode                         : Lossless
Stream size                              : 25.6 KiB (0%)
Title                                    : Franأ§ais(France)
Language                                 : English
Default                                  : No
Forced                                   : No

Text #8
ID                                       : 10
Format                                   : ASS
Codec ID                                 : S_TEXT/ASS
Codec ID/Info                            : Advanced Sub Station Alpha
Duration                                 : 24 min 9 s
Bit rate                                 : 160 b/s
Count of elements                        : 446
Compression mode                         : Lossless
Stream size                              : 28.4 KiB (0%)
Title                                    : Italiano
Language                                 : English
Default                                  : No
Forced                                   : No

Text #9
ID                                       : 11
Format                                   : ASS
Codec ID                                 : S_TEXT/ASS
Codec ID/Info                            : Advanced Sub Station Alpha
Duration                                 : 24 min 9 s
Bit rate                                 : 187 b/s
Count of elements                        : 448
Compression mode                         : Lossless
Stream size                              : 33.1 KiB (0%)
Title                                    : Portuguأھs(Brasil)
Language                                 : English
Default                                  : No
Forced                                   : No

Menu
00:00:00.000                             : :Prologue
00:01:15.180                             : :Opening
00:02:45.280                             : :Part 1
00:13:18.104                             : :Part 2
00:21:40.868                             : :Ending
00:23:10.800                             : :Epilogue
00:24:04.000                             : :Preview
beta
Anime DDL+NZB mirror
Current Time: 22/11/2017 23:52



About/FAQs