File Size1.487 GB (1,596,510,287 bytes)
DownloadClickNUpload: Part1, Part2
Jheberg: Part1, Part2
MultiUp: Part1, Part2
OpenLoad: Part1, Part2
Sendspace: Part1, Part2, Part3, Part4, Part5, Part6
SolidFiles: Part1, Part2, Part3, Part4
ZippyShare: Part1, Part2, Part3, Part4
Encrypted DownloadDirect: Part1, Part2
Password:
HashesCRC32: C183B23C, MD5: 619ECD5A7F6C733C2B52DBF1EDF803DD, SHA1: DC43B41BA93B297754D6E83481EE80E29B14C8C1, SHA256: C0CB979137EC1F90FAA9FB721068F0DD6A9C29E45AEB1103DB888EE2BB7385AE, ED2K: 941E0E49BF66FB0A4C9712ABF8B77D9D
Screenshots
screenshotscreenshotscreenshotscreenshotscreenshot
SubtitlesAll Attachments | Songs [eng, ASS], Closed Captions [eng, ASS]
Additional Info
General
Unique ID                                : 240238594503322778614160597680036378890 (0xB4BC45321008F6A014DC635C1C69F90A)
Complete name                            : Ep.83 - Field the All-7th-Universe Team! Who are the Mighty Ten [KaiDubs] [1080p].mkv
Format                                   : Matroska
Format version                           : Version 4 / Version 2
File size                                : 1.49 GiB
Duration                                 : 22 min 35 s
Overall bit rate                         : 9 426 kb/s
Movie name                               : Ep.83 - Field the All-7th-Universe Team! Who are the Mighty Ten?!
Encoded date                             : UTC 2018-10-14 08:34:22
Writing application                      : mkvmerge v27.0.0 ('Metropolis') 64-bit
Writing library                          : libebml v1.3.6 + libmatroska v1.4.9
Cover                                    : Yes
Attachments                              : eurof75.bold.ttf / hirakakupro-w6-opentype.otf / arialbd.ttf / arialbi.ttf / consola_1.ttf / CoveredByYourGrace.ttf / CronosPro-Semibold.ttf

Video
ID                                       : 1
Format                                   : AVC
Format/Info                              : Advanced Video Codec
Format profile                           : High@L5
Format settings, CABAC                   : Yes
Format settings, ReFrames                : 5 frames
Codec ID                                 : V_MPEG4/ISO/AVC
Duration                                 : 22 min 35 s
Bit rate                                 : 9 159 kb/s
Width                                    : 1 920 pixels
Height                                   : 1 080 pixels
Display aspect ratio                     : 16:9
Frame rate mode                          : Constant
Frame rate                               : 23.976 (24000/1001) FPS
Color space                              : YUV
Chroma subsampling                       : 4:2:0
Bit depth                                : 8 bits
Scan type                                : Progressive
Bits/(Pixel*Frame)                       : 0.184
Stream size                              : 1.44 GiB (97%)
Title                                    : Moozzi2 (Blu-ray)
Writing library                          : x264 core 155 r2901 7d0ff22
Encoding settings                        : cabac=1 / ref=5 / deblock=1:1:1 / analyse=0x3:0x113 / me=umh / subme=9 / psy=1 / psy_rd=1.00:0.00 / mixed_ref=1 / me_range=32 / chroma_me=1 / trellis=1 / 8x8dct=1 / cqm=0 / deadzone=21,11 / fast_pskip=0 / chroma_qp_offset=-2 / threads=24 / lookahead_threads=2 / sliced_threads=0 / nr=0 / decimate=1 / interlaced=0 / bluray_compat=0 / stitchable=1 / constrained_intra=0 / bframes=3 / b_pyramid=2 / b_adapt=2 / b_bias=0 / direct=1 / weightb=1 / open_gop=0 / weightp=1 / keyint=240 / keyint_min=23 / scenecut=40 / intra_refresh=0 / rc_lookahead=40 / rc=crf / mbtree=1 / crf=16.0 / qcomp=0.65 / qpmin=0 / qpmax=69 / qpstep=4 / ip_ratio=1.40 / aq=1:1.00
Language                                 : Japanese
Default                                  : Yes
Forced                                   : No

Audio
ID                                       : 2
Format                                   : AAC
Format/Info                              : Advanced Audio Codec
Format profile                           : LC
Codec ID                                 : A_AAC
Duration                                 : 22 min 35 s
Bit rate                                 : 196 kb/s
Channel(s)                               : 2 channels
Channel positions                        : Front: L R
Sampling rate                            : 48.0 kHz
Frame rate                               : 46.875 FPS (1024 spf)
Compression mode                         : Lossy
Stream size                              : 31.7 MiB (2%)
Title                                    : Adult Swim (Web)
Language                                 : English
Default                                  : Yes
Forced                                   : No

Text #1
ID                                       : 3
Format                                   : ASS
Codec ID                                 : S_TEXT/ASS
Codec ID/Info                            : Advanced Sub Station Alpha
Duration                                 : 22 min 18 s
Bit rate                                 : 622 b/s
Count of elements                        : 336
Compression mode                         : Lossless
Stream size                              : 102 KiB (0%)
Title                                    : Songs
Language                                 : English
Default                                  : Yes
Forced                                   : No

Text #2
ID                                       : 4
Format                                   : ASS
Codec ID                                 : S_TEXT/ASS
Codec ID/Info                            : Advanced Sub Station Alpha
Duration                                 : 22 min 18 s
Bit rate                                 : 791 b/s
Count of elements                        : 817
Compression mode                         : Lossless
Stream size                              : 129 KiB (0%)
Title                                    : Closed Captions
Language                                 : English
Default                                  : No
Forced                                   : No

Menu
00:00:00.000                             : ja:Opening
00:01:25.084                             : ja:Recap
00:02:37.114                             : ja:Title
00:02:47.124                             : ja:Part A
00:13:35.105                             : ja:Intermission
00:13:45.115                             : ja:Part B
00:21:35.126                             : ja:Ending
beta
Anime DDL+NZB mirror
Current Time: 19/10/2019 13:48



About/FAQs