File Size1.605 GB (1,723,290,184 bytes)
DownloadClickNUpload | Jheberg
MultiUp: Part1
  • BdUpload
  • DownAce
  • Fichier
  • FileCloud
  • Filerio
  • FilesCdn
  • IndiShare
  • Kbagi
  • Turbobit
  • UpToBox
  • Uppit
, Part2
  • BdUpload
  • DownAce
  • Fichier
  • FileCloud
  • Filerio
  • FilesCdn
  • IndiShare
  • Kbagi
  • Turbobit
  • UpToBox
  • Uppit
, Part3
  • BdUpload
  • DownAce
  • Fichier
  • FileCloud
  • Filerio
  • FilesCdn
  • IndiShare
  • Kbagi
  • Turbobit
  • UpToBox
  • Uppit
, Part4
  • BdUpload
  • DownAce
  • Fichier
  • FileCloud
  • Filerio
  • FilesCdn
  • IndiShare
  • Kbagi
  • Turbobit
  • UpToBox
  • Uppit

OpenLoad: Part1, Part2
Sendspace: Part1, Part2, Part3, Part4, Part5, Part6
SolidFiles: Part1, Part2, Part3, Part4
ZippyShare: Part1, Part2, Part3, Part4
HashesCRC32: 91599CBD, MD5: 8BA8DF6FD385FB64E220433AE4E06660, SHA1: D63AE8995BCDA12A00D9B3711A79E8A6C7C0225B, SHA256: 0011944FE7F81AD898E74494919C5729FDB316EEDBA404DA50F2F960C3578EDA, ED2K: 92DF314C7E72A20063A0A0ED96CF1E8D
Screenshots
screenshotscreenshotscreenshotscreenshotscreenshot
SubtitlesAll Attachments | Songs & Signs [eng, ASS], Closed Captions [eng, ASS]
Additional Info
General
Unique ID                                : 66761294913732452444388995824102173418 (0x3239C1F8A1468A7963B4DD26C2A86AEA)
Complete name                            : Ep.123 - Body, Soul and Power Unleashed! Goku and Vegeta!! [KaiDubs] [1080p].mkv
Format                                   : Matroska
Format version                           : Version 4
File size                                : 1.60 GiB
Duration                                 : 22 min 50 s
Overall bit rate                         : 10.1 Mb/s
Movie name                               : Ep.123 - Body, Soul and Power Unleashed! Goku and Vegeta!!
Encoded date                             : UTC 2019-08-11 07:40:08
Writing application                      : mkvmerge v36.0.0 ('Is That Jazz?') 64-bit
Writing library                          : libebml v1.3.9 + libmatroska v1.5.2
Attachments                              : arialbd.ttf / arialbi.ttf / FOT-RodinPro-B_0.otf / consola_1.ttf / CronosPro-Semibold.ttf / eurof75.bold.ttf / hirakakupro-w6-opentype.otf / FOT-PopHappiness Std EB-EN.ttf

Video
ID                                       : 1
Format                                   : AVC
Format/Info                              : Advanced Video Codec
Format profile                           : High@L5
Format settings                          : CABAC / 5 Ref Frames
Format settings, CABAC                   : Yes
Format settings, ReFrames                : 5 frames
Codec ID                                 : V_MPEG4/ISO/AVC
Duration                                 : 22 min 50 s
Bit rate                                 : 9 589 kb/s
Width                                    : 1 920 pixels
Height                                   : 1 080 pixels
Display aspect ratio                     : 16:9
Frame rate mode                          : Constant
Frame rate                               : 23.976 (24000/1001) FPS
Color space                              : YUV
Chroma subsampling                       : 4:2:0
Bit depth                                : 8 bits
Scan type                                : Progressive
Bits/(Pixel*Frame)                       : 0.193
Stream size                              : 1.53 GiB (95%)
Title                                    : Moozzi2 (Blu-ray)
Writing library                          : x264 core 155 r2901 7d0ff22
Encoding settings                        : cabac=1 / ref=5 / deblock=1:1:1 / analyse=0x3:0x113 / me=umh / subme=9 / psy=1 / psy_rd=1.00:0.00 / mixed_ref=1 / me_range=32 / chroma_me=1 / trellis=0 / 8x8dct=1 / cqm=0 / deadzone=21,11 / fast_pskip=0 / chroma_qp_offset=-2 / threads=24 / lookahead_threads=2 / sliced_threads=0 / nr=0 / decimate=1 / interlaced=0 / bluray_compat=0 / stitchable=1 / constrained_intra=0 / bframes=3 / b_pyramid=2 / b_adapt=2 / b_bias=0 / direct=1 / weightb=1 / open_gop=0 / weightp=1 / keyint=240 / keyint_min=23 / scenecut=40 / intra_refresh=0 / rc_lookahead=40 / rc=crf / mbtree=1 / crf=16.0 / qcomp=0.60 / qpmin=0 / qpmax=69 / qpstep=4 / ip_ratio=1.40 / aq=1:1.00
Language                                 : Japanese
Default                                  : Yes
Forced                                   : No

Audio
ID                                       : 2
Format                                   : AAC LC
Format/Info                              : Advanced Audio Codec Low Complexity
Codec ID                                 : A_AAC-2
Duration                                 : 22 min 50 s
Bit rate                                 : 384 kb/s
Channel(s)                               : 2 channels
Channel layout                           : L R
Sampling rate                            : 44.1 kHz
Frame rate                               : 43.066 FPS (1024 SPF)
Compression mode                         : Lossy
Delay relative to video                  : 10 ms
Stream size                              : 62.0 MiB (4%)
Title                                    : Adult Swim (Web)
Language                                 : English
Default                                  : Yes
Forced                                   : No

Text #1
ID                                       : 3
Format                                   : ASS
Codec ID                                 : S_TEXT/ASS
Codec ID/Info                            : Advanced Sub Station Alpha
Duration                                 : 22 min 47 s
Bit rate                                 : 365 b/s
Count of elements                        : 231
Compression mode                         : Lossless
Stream size                              : 61.0 KiB (0%)
Title                                    : Songs & Signs
Language                                 : English
Default                                  : Yes
Forced                                   : No

Text #2
ID                                       : 4
Format                                   : ASS
Codec ID                                 : S_TEXT/ASS
Codec ID/Info                            : Advanced Sub Station Alpha
Duration                                 : 22 min 47 s
Bit rate                                 : 457 b/s
Count of elements                        : 536
Compression mode                         : Lossless
Stream size                              : 76.4 KiB (0%)
Title                                    : Closed Captions
Language                                 : English
Default                                  : No
Forced                                   : No

Menu
00:00:00.000                             : ja:Intro
00:00:30.030                             : ja:Opening
00:01:55.115                             : ja:Recap
00:03:14.152                             : ja:Title
00:03:24.162                             : ja:Part A
00:12:29.165                             : ja:Intermission
00:12:39.175                             : ja:Part B
00:21:50.142                             : ja:Ending
beta
Anime DDL+NZB mirror
Current Time: 09/04/2020 11:05



About/FAQs