Ep.117 - Showdown Of Love! The Androids vs. The 2nd Universe! [Dual Audio] [KaiDubs] [1080p].mkv


File Size1.581 GB (1,697,888,955 bytes)
DownloadClickNUpload | Jheberg
MultiUp: Part1
  • BdUpload
  • DownAce
  • Fichier
  • FileCloud
  • Filerio
  • FilesCdn
  • IndiShare
  • Kbagi
  • Turbobit
  • UpToBox
  • Uppit
, Part2
  • BdUpload
  • DownAce
  • Fichier
  • FileCloud
  • Filerio
  • FilesCdn
  • IndiShare
  • Kbagi
  • Turbobit
  • UpToBox
  • Uppit
, Part3
  • BdUpload
  • DownAce
  • Fichier
  • FileCloud
  • Filerio
  • FilesCdn
  • IndiShare
  • Kbagi
  • Turbobit
  • UpToBox
  • Uppit
, Part4
  • BdUpload
  • DownAce
  • Fichier
  • FileCloud
  • Filerio
  • FilesCdn
  • IndiShare
  • Kbagi
  • Turbobit
  • UpToBox
  • Uppit

OpenLoad: Part1, Part2
Sendspace: Part1, Part2, Part3, Part4, Part5, Part6
SolidFiles: Part1, Part2, Part3, Part4
ZippyShare: Part1, Part2, Part3, Part4
HashesCRC32: 113BD166, MD5: 1F296B76C7A6F08DE25A41800E4FB8DC, SHA1: 8E70F661C2F2952A6A5C3F7A63D02145649BEA9A, SHA256: 3101A41678E2F5AD04CFB7B8E133E92013A51FF45F23F28A384D292D00A1B28F, ED2K: 26BEC03BB7C33290A307D632E14E0503
Screenshots
screenshotscreenshotscreenshotscreenshotscreenshot
SubtitlesAll Attachments | Songs & Signs [eng, ASS], Closed Captions [eng, ASS], Crunchyroll (RH) [eng, ASS]
Additional Info
General
Unique ID                                : 164791886184428552424741125396876198007 (0x7BF9C34822EC6DB36F82B1C3E1738077)
Complete name                            : Ep.117 - Showdown Of Love! The Androids vs. The 2nd Universe! [Dual Audio] [KaiDubs] [1080p].mkv
Format                                   : Matroska
Format version                           : Version 4
File size                                : 1.58 GiB
Duration                                 : 22 min 50 s
Overall bit rate mode                    : Variable
Overall bit rate                         : 9 913 kb/s
Movie name                               : Ep.117 - Showdown Of Love! The Androids vs. The 2nd Universe!
Encoded date                             : UTC 2019-06-30 13:36:51
Writing application                      : mkvmerge v35.0.0 ('All The Love In The World') 64-bit
Writing library                          : libebml v1.3.9 + libmatroska v1.5.2
Attachments                              : arialbd.ttf / arialbi.ttf / A-OTF-Jun34Pro-Medium-Jinrui.TTF / consola_1.ttf / CronosPro-Semibold.ttf / eurof75.bold.ttf / hirakakupro-w6-opentype.otf / FOT-PopHappiness Std EB-EN.ttf

Video
ID                                       : 1
Format                                   : AVC
Format/Info                              : Advanced Video Codec
Format profile                           : High@L5
Format settings                          : CABAC / 5 Ref Frames
Format settings, CABAC                   : Yes
Format settings, ReFrames                : 5 frames
Codec ID                                 : V_MPEG4/ISO/AVC
Duration                                 : 22 min 50 s
Bit rate                                 : 8 788 kb/s
Width                                    : 1 920 pixels
Height                                   : 1 080 pixels
Display aspect ratio                     : 16:9
Frame rate mode                          : Constant
Frame rate                               : 23.976 (24000/1001) FPS
Color space                              : YUV
Chroma subsampling                       : 4:2:0
Bit depth                                : 8 bits
Scan type                                : Progressive
Bits/(Pixel*Frame)                       : 0.177
Stream size                              : 1.40 GiB (89%)
Title                                    : Moozzi2 (Blu-ray)
Writing library                          : x264 core 155 r2901 7d0ff22
Encoding settings                        : cabac=1 / ref=5 / deblock=1:1:1 / analyse=0x3:0x113 / me=umh / subme=9 / psy=1 / psy_rd=1.00:0.00 / mixed_ref=1 / me_range=32 / chroma_me=1 / trellis=0 / 8x8dct=1 / cqm=0 / deadzone=21,11 / fast_pskip=0 / chroma_qp_offset=-2 / threads=24 / lookahead_threads=2 / sliced_threads=0 / nr=0 / decimate=1 / interlaced=0 / bluray_compat=0 / stitchable=1 / constrained_intra=0 / bframes=3 / b_pyramid=2 / b_adapt=2 / b_bias=0 / direct=1 / weightb=1 / open_gop=0 / weightp=1 / keyint=240 / keyint_min=23 / scenecut=40 / intra_refresh=0 / rc_lookahead=40 / rc=crf / mbtree=1 / crf=16.0 / qcomp=0.60 / qpmin=0 / qpmax=69 / qpstep=4 / ip_ratio=1.40 / aq=1:1.00
Language                                 : Japanese
Default                                  : Yes
Forced                                   : No

Audio #1
ID                                       : 2
Format                                   : AAC LC
Format/Info                              : Advanced Audio Codec Low Complexity
Codec ID                                 : A_AAC-2
Duration                                 : 22 min 50 s
Bit rate                                 : 364 kb/s
Channel(s)                               : 2 channels
Channel layout                           : L R
Sampling rate                            : 44.1 kHz
Frame rate                               : 43.066 FPS (1024 SPF)
Compression mode                         : Lossy
Delay relative to video                  : 10 ms
Stream size                              : 59.5 MiB (4%)
Title                                    : Adult Swim (Web)
Language                                 : English
Default                                  : Yes
Forced                                   : No

Audio #2
ID                                       : 3
Format                                   : FLAC
Format/Info                              : Free Lossless Audio Codec
Codec ID                                 : A_FLAC
Duration                                 : 22 min 50 s
Bit rate mode                            : Variable
Bit rate                                 : 684 kb/s
Channel(s)                               : 2 channels
Channel layout                           : L R
Sampling rate                            : 48.0 kHz
Frame rate                               : 11.719 FPS (4096 SPF)
Bit depth                                : 16 bits
Compression mode                         : Lossless
Stream size                              : 112 MiB (7%)
Title                                    : Toei (Blu-ray)
Writing library                          : libFLAC 1.3.2 (UTC 2017-01-01)
Language                                 : Japanese
Default                                  : No
Forced                                   : No

Text #1
ID                                       : 4
Format                                   : ASS
Codec ID                                 : S_TEXT/ASS
Codec ID/Info                            : Advanced Sub Station Alpha
Duration                                 : 22 min 46 s
Bit rate                                 : 1 179 b/s
Count of elements                        : 1524
Compression mode                         : Lossless
Stream size                              : 197 KiB (0%)
Title                                    : Songs & Signs
Language                                 : English
Default                                  : Yes
Forced                                   : No

Text #2
ID                                       : 5
Format                                   : ASS
Codec ID                                 : S_TEXT/ASS
Codec ID/Info                            : Advanced Sub Station Alpha
Duration                                 : 22 min 46 s
Bit rate                                 : 1 317 b/s
Count of elements                        : 1969
Compression mode                         : Lossless
Stream size                              : 220 KiB (0%)
Title                                    : Closed Captions
Language                                 : English
Default                                  : No
Forced                                   : No

Text #3
ID                                       : 6
Format                                   : ASS
Codec ID                                 : S_TEXT/ASS
Codec ID/Info                            : Advanced Sub Station Alpha
Duration                                 : 22 min 46 s
Bit rate                                 : 1 247 b/s
Count of elements                        : 1794
Compression mode                         : Lossless
Stream size                              : 208 KiB (0%)
Title                                    : Crunchyroll (RH)
Language                                 : English
Default                                  : No
Forced                                   : No

Menu
00:00:00.000                             : ja:Intro
00:00:30.030                             : ja:Opening
00:01:55.115                             : ja:Recap
00:02:38.158                             : ja:Title
00:02:48.168                             : ja:Part A
00:11:49.125                             : ja:Intermission
00:11:59.135                             : ja:Part B
00:21:50.142                             : ja:Ending
beta
Anime DDL+NZB mirror
Current Time: 17/10/2019 14:19



About/FAQs