File Size1.616 GB (1,734,848,143 bytes)
DownloadJheberg
  • 1Fichier
  • 2Giga
  • BDupload
  • ClicknUpload
  • Filerio
  • FilesCDN
  • FilesUpload
  • Free
  • MegaUp
  • Nitroflare
  • Openload
  • ShareOnline
  • Turbobit
  • Tusfiles
  • Uppit
  • Uptobox
  • ddlTo

ClickNUpload: Part1, Part2
MultiUp: Part1
  • BdUpload
  • DownAce
  • Fichier
  • FileCloud
  • Filerio
  • FilesCdn
  • IndiShare
  • Kbagi
  • Turbobit
  • UpToBox
  • Uppit
, Part2
  • BdUpload
  • DownAce
  • Fichier
  • FileCloud
  • Filerio
  • FilesCdn
  • IndiShare
  • Kbagi
  • Turbobit
  • UpToBox
  • Uppit
, Part3
  • BdUpload
  • DownAce
  • Fichier
  • FileCloud
  • Filerio
  • FilesCdn
  • IndiShare
  • Kbagi
  • Turbobit
  • UpToBox
  • Uppit
, Part4
  • BdUpload
  • DownAce
  • Fichier
  • FileCloud
  • Filerio
  • FilesCdn
  • IndiShare
  • Kbagi
  • Turbobit
  • UpToBox
  • Uppit

OpenLoad: Part1, Part2
Sendspace: Part1, Part2, Part3, Part4, Part5, Part6
SolidFiles: Part1, Part2, Part3, Part4
ZippyShare: Part1, Part2, Part3, Part4
HashesCRC32: 96C201BD, MD5: DAF520B3D1FFBCAB22D5BE09FE59050F, SHA1: 50598EEF8BCE1C18F84C5BB94CE516DD36D5BE68, SHA256: 9F34E6F736CF7CAEEDFB85E02DCF34F499FA201347343BD848367D380D89759C, ED2K: 5DDD4BDE8BC92FDA2C85F07CDDEBF721
Screenshots
screenshotscreenshotscreenshotscreenshotscreenshot
SubtitlesAll Attachments | Songs & Signs (Dub) [eng, ASS], Closed Captions (Dub) [eng, ASS], Crunchyroll (RH) [eng, ASS]
Additional Info
General
Unique ID                                : 272887631297672349256340161773492052723 (0xCD4C3EFD95E9615971A1AD36174922F3)
Complete name                            : Ep.115v2 - Goku vs. Kefla! Super Saiyan Blue Beaten! [Dual Audio] [KaiDubs] [1080p].mkv
Format                                   : Matroska
Format version                           : Version 4
File size                                : 1.62 GiB
Duration                                 : 22 min 50 s
Overall bit rate mode                    : Variable
Overall bit rate                         : 10.1 Mb/s
Movie name                               : Ep.115 - Goku vs. Kefla! Super Saiyan Blue Beaten!?
Encoded date                             : UTC 2019-06-16 13:09:35
Writing application                      : mkvmerge v34.0.0 ('Sight and Seen') 64-bit
Writing library                          : libebml v1.3.7 + libmatroska v1.5.0
Attachments                              : FOT-PopHappiness Std EB-EN.ttf / arialbd.ttf / arialbi.ttf / A-OTF-Jun34Pro-Medium-Jinrui.TTF / consola_1.ttf / CronosPro-Semibold.ttf / eurof75.bold.ttf / hirakakupro-w6-opentype.otf

Video
ID                                       : 1
Format                                   : AVC
Format/Info                              : Advanced Video Codec
Format profile                           : High@L5
Format settings                          : CABAC / 5 Ref Frames
Format settings, CABAC                   : Yes
Format settings, ReFrames                : 5 frames
Codec ID                                 : V_MPEG4/ISO/AVC
Duration                                 : 22 min 50 s
Bit rate                                 : 8 929 kb/s
Width                                    : 1 920 pixels
Height                                   : 1 080 pixels
Display aspect ratio                     : 16:9
Frame rate mode                          : Constant
Frame rate                               : 23.976 (24000/1001) FPS
Color space                              : YUV
Chroma subsampling                       : 4:2:0
Bit depth                                : 8 bits
Scan type                                : Progressive
Bits/(Pixel*Frame)                       : 0.180
Stream size                              : 1.42 GiB (88%)
Title                                    : Moozzi2 (Blu-ray)
Writing library                          : x264 core 155 r2901 7d0ff22
Encoding settings                        : cabac=1 / ref=5 / deblock=1:1:1 / analyse=0x3:0x113 / me=umh / subme=9 / psy=1 / psy_rd=1.00:0.00 / mixed_ref=1 / me_range=32 / chroma_me=1 / trellis=0 / 8x8dct=1 / cqm=0 / deadzone=21,11 / fast_pskip=0 / chroma_qp_offset=-2 / threads=24 / lookahead_threads=2 / sliced_threads=0 / nr=0 / decimate=1 / interlaced=0 / bluray_compat=0 / stitchable=1 / constrained_intra=0 / bframes=3 / b_pyramid=2 / b_adapt=2 / b_bias=0 / direct=1 / weightb=1 / open_gop=0 / weightp=1 / keyint=240 / keyint_min=23 / scenecut=40 / intra_refresh=0 / rc_lookahead=40 / rc=crf / mbtree=1 / crf=16.0 / qcomp=0.60 / qpmin=0 / qpmax=69 / qpstep=4 / ip_ratio=1.40 / aq=1:1.00
Language                                 : Japanese
Default                                  : Yes
Forced                                   : No

Audio #1
ID                                       : 2
Format                                   : AAC LC
Format/Info                              : Advanced Audio Codec Low Complexity
Codec ID                                 : A_AAC-2
Duration                                 : 22 min 50 s
Bit rate                                 : 353 kb/s
Channel(s)                               : 2 channels
Channel layout                           : L R
Sampling rate                            : 44.1 kHz
Frame rate                               : 43.066 FPS (1024 SPF)
Compression mode                         : Lossy
Delay relative to video                  : 10 ms
Stream size                              : 57.8 MiB (3%)
Title                                    : Adult Swim (Web)
Language                                 : English
Default                                  : Yes
Forced                                   : No

Audio #2
ID                                       : 3
Format                                   : FLAC
Format/Info                              : Free Lossless Audio Codec
Codec ID                                 : A_FLAC
Duration                                 : 22 min 50 s
Bit rate mode                            : Variable
Bit rate                                 : 769 kb/s
Channel(s)                               : 2 channels
Channel layout                           : L R
Sampling rate                            : 48.0 kHz
Frame rate                               : 11.719 FPS (4096 SPF)
Bit depth                                : 16 bits
Compression mode                         : Lossless
Stream size                              : 126 MiB (8%)
Title                                    : Toei (Blu-ray)
Writing library                          : libFLAC 1.3.2 (UTC 2017-01-01)
Language                                 : Japanese
Default                                  : No
Forced                                   : No

Text #1
ID                                       : 4
Format                                   : ASS
Codec ID                                 : S_TEXT/ASS
Codec ID/Info                            : Advanced Sub Station Alpha
Duration                                 : 22 min 47 s
Bit rate                                 : 1 179 b/s
Count of elements                        : 1525
Compression mode                         : Lossless
Stream size                              : 197 KiB (0%)
Title                                    : Songs & Signs (Dub)
Language                                 : English
Default                                  : Yes
Forced                                   : No

Text #2
ID                                       : 5
Format                                   : ASS
Codec ID                                 : S_TEXT/ASS
Codec ID/Info                            : Advanced Sub Station Alpha
Duration                                 : 22 min 47 s
Bit rate                                 : 1 307 b/s
Count of elements                        : 1913
Compression mode                         : Lossless
Stream size                              : 218 KiB (0%)
Title                                    : Closed Captions (Dub)
Language                                 : English
Default                                  : No
Forced                                   : No

Text #3
ID                                       : 6
Format                                   : ASS
Codec ID                                 : S_TEXT/ASS
Codec ID/Info                            : Advanced Sub Station Alpha
Duration                                 : 22 min 47 s
Bit rate                                 : 1 236 b/s
Count of elements                        : 1751
Compression mode                         : Lossless
Stream size                              : 206 KiB (0%)
Title                                    : Crunchyroll (RH)
Language                                 : English
Default                                  : No
Forced                                   : No

Menu #1
00:00:00.000                             : ja:Intro
00:00:30.030                             : ja:Opening
00:01:55.115                             : ja:Recap
00:03:20.158                             : ja:Title
00:03:30.168                             : ja:Part A
00:12:11.147                             : ja:Intermission
00:12:21.157                             : ja:Part B
00:21:50.142                             : ja:Ending

Menu #2
00:00:00.059                             : en:Chapter 01
beta
Anime DDL+NZB mirror
Current Time: 28/03/2020 21:14



About/FAQs