File Size1.559 GB (1,673,544,860 bytes)
DownloadJheberg
ClickNUpload: Part1, Part2
MultiUp: Part1
  • BdUpload
  • DownAce
  • Fichier
  • FileCloud
  • Filerio
  • FilesCdn
  • IndiShare
  • Kbagi
  • Turbobit
  • UpToBox
  • Uppit
, Part2
  • BdUpload
  • DownAce
  • Fichier
  • FileCloud
  • Filerio
  • FilesCdn
  • IndiShare
  • Kbagi
  • Turbobit
  • UpToBox
  • Uppit
, Part3
  • BdUpload
  • DownAce
  • Fichier
  • FileCloud
  • Filerio
  • FilesCdn
  • IndiShare
  • Kbagi
  • Turbobit
  • UpToBox
  • Uppit
, Part4
  • BdUpload
  • DownAce
  • Fichier
  • FileCloud
  • Filerio
  • FilesCdn
  • IndiShare
  • Kbagi
  • Turbobit
  • UpToBox
  • Uppit

OpenLoad: Part1, Part2
Sendspace: Part1, Part2, Part3, Part4, Part5, Part6
SolidFiles: Part1, Part2, Part3, Part4
ZippyShare: Part1, Part2, Part3, Part4
HashesCRC32: 59F12329, MD5: DC992D94B1DB4C9FB9524A2CF262F70E, SHA1: 56438799E59EC49A82B3757151F634F9CE013C23, SHA256: 987D1646277A0E2F5579225398AD2F20FF7811F582B3A0CDCE5D38144B3CC271, ED2K: E886690AA7B787B118423C697D175529
Screenshots
screenshotscreenshotscreenshotscreenshotscreenshot
SubtitlesAll Attachments | Songs & Signs [eng, ASS], Closed Captions [eng, ASS]
Additional Info
General
Unique ID                                : 145333695496581611699973245969833783333 (0x6D5640696AB193C1BB883E2FA1F1F025)
Complete name                            : Ep.114 - Bloodcurdling! The Explosive Birth Of A New Super Warrior! [KaiDubs] [1080p].mkv
Format                                   : Matroska
Format version                           : Version 4
File size                                : 1.56 GiB
Duration                                 : 22 min 50 s
Overall bit rate                         : 9 770 kb/s
Movie name                               : Ep.114 - Bloodcurdling! The Explosive Birth Of A New Super Warrior!
Encoded date                             : UTC 2019-06-09 08:13:59
Writing application                      : mkvmerge v34.0.0 ('Sight and Seen') 64-bit
Writing library                          : libebml v1.3.7 + libmatroska v1.5.0
Attachments                              : arialbd.ttf / arialbi.ttf / A-OTF-Jun34Pro-Medium-Jinrui.TTF / consola_1.ttf / CronosPro-Semibold.ttf / eurof75.bold.ttf / hirakakupro-w6-opentype.otf

Video
ID                                       : 1
Format                                   : AVC
Format/Info                              : Advanced Video Codec
Format profile                           : High@L5
Format settings                          : CABAC / 5 Ref Frames
Format settings, CABAC                   : Yes
Format settings, ReFrames                : 5 frames
Codec ID                                 : V_MPEG4/ISO/AVC
Duration                                 : 22 min 50 s
Bit rate                                 : 9 323 kb/s
Width                                    : 1 920 pixels
Height                                   : 1 080 pixels
Display aspect ratio                     : 16:9
Frame rate mode                          : Constant
Frame rate                               : 23.976 (24000/1001) FPS
Color space                              : YUV
Chroma subsampling                       : 4:2:0
Bit depth                                : 8 bits
Scan type                                : Progressive
Bits/(Pixel*Frame)                       : 0.188
Stream size                              : 1.49 GiB (95%)
Title                                    : Moozzi2 (Blu-ray)
Writing library                          : x264 core 155 r2901 7d0ff22
Encoding settings                        : cabac=1 / ref=5 / deblock=1:1:1 / analyse=0x3:0x113 / me=umh / subme=9 / psy=1 / psy_rd=1.00:0.00 / mixed_ref=1 / me_range=32 / chroma_me=1 / trellis=0 / 8x8dct=1 / cqm=0 / deadzone=21,11 / fast_pskip=0 / chroma_qp_offset=-2 / threads=24 / lookahead_threads=2 / sliced_threads=0 / nr=0 / decimate=1 / interlaced=0 / bluray_compat=0 / stitchable=1 / constrained_intra=0 / bframes=3 / b_pyramid=2 / b_adapt=2 / b_bias=0 / direct=1 / weightb=1 / open_gop=0 / weightp=1 / keyint=240 / keyint_min=23 / scenecut=40 / intra_refresh=0 / rc_lookahead=40 / rc=crf / mbtree=1 / crf=16.0 / qcomp=0.60 / qpmin=0 / qpmax=69 / qpstep=4 / ip_ratio=1.40 / aq=1:1.00
Language                                 : Japanese
Default                                  : Yes
Forced                                   : No

Audio
ID                                       : 2
Format                                   : AAC LC
Format/Info                              : Advanced Audio Codec Low Complexity
Codec ID                                 : A_AAC-2
Duration                                 : 22 min 50 s
Bit rate                                 : 376 kb/s
Channel(s)                               : 2 channels
Channel layout                           : L R
Sampling rate                            : 48.0 kHz
Frame rate                               : 46.875 FPS (1024 SPF)
Compression mode                         : Lossy
Delay relative to video                  : 9 ms
Stream size                              : 61.4 MiB (4%)
Title                                    : Adult Swim (Web)
Language                                 : English
Default                                  : Yes
Forced                                   : No

Text #1
ID                                       : 3
Format                                   : ASS
Codec ID                                 : S_TEXT/ASS
Codec ID/Info                            : Advanced Sub Station Alpha
Duration                                 : 22 min 46 s
Bit rate                                 : 1 179 b/s
Count of elements                        : 1524
Compression mode                         : Lossless
Stream size                              : 197 KiB (0%)
Title                                    : Songs & Signs
Language                                 : English
Default                                  : Yes
Forced                                   : No

Text #2
ID                                       : 4
Format                                   : ASS
Codec ID                                 : S_TEXT/ASS
Codec ID/Info                            : Advanced Sub Station Alpha
Duration                                 : 22 min 46 s
Bit rate                                 : 1 307 b/s
Count of elements                        : 1927
Compression mode                         : Lossless
Stream size                              : 218 KiB (0%)
Title                                    : Closed Captions
Language                                 : English
Default                                  : No
Forced                                   : No

Menu #1
00:00:00.000                             : ja:Intro
00:00:30.030                             : ja:Opening
00:01:55.115                             : ja:Recap
00:03:16.154                             : ja:Title
00:03:26.164                             : ja:Part A
00:12:29.165                             : ja:Intermission
00:12:39.175                             : ja:Part B
00:21:50.142                             : ja:Ending

Menu #2
00:00:00.054                             : en:Chapter 01
beta
Anime DDL+NZB mirror
Current Time: 09/04/2020 20:48



About/FAQs