File Size274.9 MB (288,244,867 bytes)
DownloadClickNUpload | Jheberg | MultiUp
  • BdUpload
  • DownAce
  • Fichier
  • FileCloud
  • Filerio
  • FilesCdn
  • IndiShare
  • Kbagi
  • Turbobit
  • UpToBox
  • Uppit
| OpenLoad | Sendspace | SolidFiles | ZippyShare
HashesCRC32: 2ED30621, MD5: 1F16A37991A61852170EA8B76D6E9271, SHA1: AE4382007F1576AF28E6CD7BD598BBAD46E07C17, SHA256: 19B364CC158452055AA9ECC0159A0A1A0F5358643ABE8199F4BF00736CB3173B, ED2K: 808097CC3ED37BDCFE9B69B6E004309E
Screenshots
screenshotscreenshotscreenshotscreenshotscreenshot
Additional Info
General
Complete name                            : Ep.114 - Bloodcurdling! The Explosive Birth of a New Super Warrior! [KaiDubs] [480p].mp4
Format                                   : MPEG-4
Format profile                           : Base Media
Codec ID                                 : isom (isom/iso2/avc1/mp41)
File size                                : 275 MiB
Duration                                 : 21 min 0 s
Overall bit rate mode                    : Variable
Overall bit rate                         : 1 830 kb/s
Movie name                               : Ripped by KaiDubs
Writing application                      : Lavf58.26.101

Video
ID                                       : 1
Format                                   : AVC
Format/Info                              : Advanced Video Codec
Format profile                           : Baseline@L3.1
Format settings                          : 3 Ref Frames
Format settings, CABAC                   : No
Format settings, ReFrames                : 3 frames
Format settings, GOP                     : M=1, N=60
Codec ID                                 : avc1
Codec ID/Info                            : Advanced Video Coding
Duration                                 : 21 min 0 s
Bit rate                                 : 1 697 kb/s
Width                                    : 852 pixels
Height                                   : 480 pixels
Display aspect ratio                     : 16:9
Frame rate mode                          : Variable
Frame rate                               : 29.970 (29970/1000) FPS
Minimum frame rate                       : 29.960 FPS
Maximum frame rate                       : 29.970 FPS
Color space                              : YUV
Chroma subsampling                       : 4:2:0
Bit depth                                : 8 bits
Scan type                                : Progressive
Bits/(Pixel*Frame)                       : 0.138
Stream size                              : 255 MiB (93%)
Title                                    : Adult Swim
Language                                 : English
Codec configuration box                  : avcC

Audio
ID                                       : 2
Format                                   : AAC LC
Format/Info                              : Advanced Audio Codec Low Complexity
Codec ID                                 : mp4a-40-2
Duration                                 : 21 min 0 s
Bit rate mode                            : Constant
Bit rate                                 : 126 kb/s
Channel(s)                               : 2 channels
Channel layout                           : L R
Sampling rate                            : 44.1 kHz
Frame rate                               : 43.066 FPS (1024 SPF)
Compression mode                         : Lossy
Stream size                              : 18.9 MiB (7%)
Title                                    : 2.0 AAC
Language                                 : English
Default                                  : Yes
Alternate group                          : 1

Text
ID                                       : 3
Format                                   : Timed Text
Muxing mode                              : sbtl
Codec ID                                 : tx3g
Duration                                 : 20 min 51 s
Bit rate mode                            : Variable
Bit rate                                 : 91 b/s
Stream size                              : 14.0 KiB (0%)
Title                                    : Closed Captions
Language                                 : English
Default                                  : Yes
Forced                                   : No
Alternate group                          : 3
beta
Anime DDL+NZB mirror
Current Time: 04/04/2020 00:04



About/FAQs