File Size142.9 MB (149,797,588 bytes)
DownloadAnonFiles | ClickNUpload | DropAPK | Free | MultiUp
  • BdUpload
  • DownAce
  • Fichier
  • FileCloud
  • Filerio
  • FilesCdn
  • IndiShare
  • Kbagi
  • Turbobit
  • UpToBox
  • Uppit
| Sendspace | SolidFiles | ZippyShare
HashesCRC32: E8FBF842, MD5: FEF9EE0FB6429A45A4CACCD1FC1D788F, SHA1: 46BE22DD0010E1FB9793B1F2C906680D9016BB50, SHA256: B6E25790B93CB2392BA5B245DBA075B74C8F7292922E9F8A90BC7F5881AC8F4E, ED2K: CD3817A8E19109CED8BB5FC768C462A3
Screenshots
screenshotscreenshotscreenshotscreenshotscreenshot
SubtitlesAll Attachments | Signs / Songs [eng, ASS], Full Sub [eng, ASS]
Additional Info
General
Unique ID                                : 158680707850060001479596123908452086669 (0x7760CAED5F10A8BF5B7A41C02C23738D)
Complete name                            : Ep-03 The Rumors of the Steel Lady.mkv
Format                                   : Matroska
Format version                           : Version 4
File size                                : 143 MiB
Duration                                 : 24 min 4 s
Overall bit rate                         : 830 kb/s
Movie name                               : [Jas] Kyokou Suiri Ep-03 BD 720p 10bit Dual Audio HEVC
Encoded date                             : UTC 2020-07-21 14:54:50
Writing application                      : mkvmerge v45.0.0 ('Heaven in Pennies') 32-bit
Writing library                          : libebml v1.3.10 + libmatroska v1.5.2 / Lavf57.83.100
Cover                                    : Yes
Attachments                              : cover.jpg / Esperanto SemiBold.ttf / FOT Manyo Sosho Std Stripped EB.ttf / GandhiSans-Bold.otf / GandhiSans-BoldItalic.otf / GandhiSans-Regular.otf / Hiragino Mincho ProN W6.otf / OpenSans-Semibold.ttf / UVN Con Thuy.ttf / 321impact.ttf / Aardvark Bold.ttf / Abyss TS.ttf / Aero Matics Bold.ttf / Aero Matics Display Bold.ttf / Aero Matics Display Light.ttf / AGaramondPro-Bold.otf / AGaramondPro-Regular.otf / brushtype-normal.ttf

Video
ID                                       : 1
Format                                   : HEVC
Format/Info                              : High Efficiency Video Coding
Format profile                           : Main 10@L3.1@Main
Codec ID                                 : V_MPEGH/ISO/HEVC
Duration                                 : 24 min 1 s
Bit rate                                 : 490 kb/s
Width                                    : 1 280 pixels
Height                                   : 720 pixels
Display aspect ratio                     : 16:9
Frame rate mode                          : Variable
Frame rate                               : 23.976 FPS
Color space                              : YUV
Chroma subsampling                       : 4:2:0
Bit depth                                : 10 bits
Bits/(Pixel*Frame)                       : 0.022
Stream size                              : 84.2 MiB (59%)
Writing library                          : x265 2.6:[Linux][GCC 7.2.0][64 bit] 10bit
Encoding settings                        : cpuid=1173503 / frame-threads=2 / wpp / no-pmode / no-pme / no-psnr / no-ssim / log-level=0 / input-csp=1 / input-res=1280x720 / interlace=0 / total-frames=0 / level-idc=0 / high-tier=1 / uhd-bd=0 / ref=4 / no-allow-non-conformance / no-repeat-headers / annexb / no-aud / no-hrd / info / hash=0 / no-temporal-layers / open-gop / min-keyint=23 / keyint=250 / bframes=4 / b-adapt=2 / b-pyramid / bframe-bias=0 / rc-lookahead=25 / lookahead-slices=4 / scenecut=40 / no-intra-refresh / ctu=64 / min-cu-size=8 / rect / no-amp / max-tu-size=32 / tu-inter-depth=1 / tu-intra-depth=1 / limit-tu=0 / rdoq-level=2 / dynamic-rd=0.00 / no-ssim-rd / signhide / no-tskip / nr-intra=0 / nr-inter=0 / no-constrained-intra / strong-intra-smoothing / max-merge=3 / limit-refs=3 / limit-modes / me=3 / subme=3 / merange=57 / temporal-mvp / weightp / no-weightb / no-analyze-src-pics / deblock=0:0 / sao / no-sao-non-deblock / rd=4 / no-early-skip / rskip / no-fast-intra / no-tskip-fast / no-cu-lossless / no-b-intra / no-splitrd-skip / rdpenalty=0 / psy-rd=2.00 / psy-rdoq=1.00 / no-rd-refine / analysis-reuse-mode=0 / no-lossless / cbqpoffs=0 / crqpoffs=0 / rc=crf / crf=22.0 / qcomp=0.60 / qpstep=4 / stats-write=0 / stats-read=0 / ipratio=1.40 / pbratio=1.30 / aq-mode=1 / aq-strength=1.00 / cutree / zone-count=0 / no-strict-cbr / qg-size=32 / no-rc-grain / qpmax=69 / qpmin=0 / no-const-vbv / sar=1 / overscan=0 / videoformat=5 / range=0 / colorprim=2 / transfer=2 / colormatrix=2 / chromaloc=0 / display-window=0 / max-cll=0,0 / min-luma=0 / max-luma=1023 / log2-max-poc-lsb=8 / vui-timing-info / vui-hrd-info / slices=1 / no-opt-qp-pps / no-opt-ref-list-length-pps / no-multi-pass-opt-rps / scenecut-bias=0.05 / no-opt-cu-delta-qp / no-aq-motion / no-hdr / no-hdr-opt / no-dhdr10-opt / analysis-reuse-level=5 / scale-factor=0 / refine-intra=0 / refine-inter=0 / refine-mv=0 / no-limit-sao / ctu-info=0 / no-lowpass-dct / refine-mv-type=0 / copy-pic=1
Default                                  : Yes
Forced                                   : No
Color range                              : Limited

Audio #1
ID                                       : 2
Format                                   : AAC LC
Format/Info                              : Advanced Audio Codec Low Complexity
Codec ID                                 : A_AAC-2
Duration                                 : 24 min 4 s
Bit rate                                 : 128 kb/s
Channel(s)                               : 2 channels
Channel layout                           : L R
Sampling rate                            : 44.1 kHz
Frame rate                               : 43.066 FPS (1024 SPF)
Compression mode                         : Lossy
Delay relative to video                  : -7 ms
Stream size                              : 22.0 MiB (15%)
Language                                 : English
Default                                  : Yes
Forced                                   : No

Audio #2
ID                                       : 3
Format                                   : Opus
Codec ID                                 : A_OPUS
Duration                                 : 24 min 1 s
Bit rate                                 : 131 kb/s
Channel(s)                               : 2 channels
Channel layout                           : L R
Sampling rate                            : 48.0 kHz
Frame rate                               : 50.000 FPS (960 SPF)
Compression mode                         : Lossy
Delay relative to video                  : -7 ms
Stream size                              : 22.5 MiB (16%)
Language                                 : Japanese
Default                                  : No
Forced                                   : No

Text #1
ID                                       : 4
Format                                   : ASS
Codec ID                                 : S_TEXT/ASS
Codec ID/Info                            : Advanced Sub Station Alpha
Duration                                 : 23 min 46 s
Bit rate                                 : 6 868 b/s
Count of elements                        : 3593
Compression mode                         : Lossless
Stream size                              : 1.17 MiB (1%)
Title                                    : Signs / Songs
Language                                 : English
Default                                  : Yes
Forced                                   : No

Text #2
ID                                       : 5
Format                                   : ASS
Codec ID                                 : S_TEXT/ASS
Codec ID/Info                            : Advanced Sub Station Alpha
Duration                                 : 23 min 59 s
Bit rate                                 : 6 954 b/s
Count of elements                        : 3955
Compression mode                         : Lossless
Stream size                              : 1.19 MiB (1%)
Title                                    : Full Sub
Language                                 : English
Default                                  : No
Forced                                   : No

Other Files in this Torrent
Ep-03 The Rumors of the Steel Lady.mkv
beta
Anime DDL+NZB mirror
Current Time: 20/01/2021 10:39



About/FAQs