[entameSubs] Yu-Gi-Oh! SEVENS - Episode 34 [720p].mkv


File Size421.0 MB (441,467,528 bytes)
DownloadAnonFiles | ClickNUpload | DropAPK | Free | MultiUp
  • BdUpload
  • DownAce
  • Fichier
  • FileCloud
  • Filerio
  • FilesCdn
  • IndiShare
  • Kbagi
  • Turbobit
  • UpToBox
  • Uppit
| SolidFiles | ZippyShare
HashesCRC32: 5A3F1E54, MD5: C03D5AE7C9B73F3471C188B68F2434B7, SHA1: 9C30AA59659930FA89B53F4181C929863C9E2D28, SHA256: 8647A07A7043CAF77043FD98B7D959F6B1167E110F4B503D99861FE48D27B237, ED2K: 35516DD0E18EB902B6986EB3A84BA9CA
Screenshots
screenshotscreenshotscreenshotscreenshotscreenshot
SubtitlesAll Attachments | entameSubs [eng, ASS]
Additional Info
General
Unique ID                                : 211048825373069351506917727197269168680 (0x9EC68676DFC479C60E5AC62DCFF99228)
Complete name                            : [entameSubs] Yu-Gi-Oh! SEVENS - Episode 34 [720p].mkv
Format                                   : Matroska
Format version                           : Version 4
File size                                : 421 MiB
Duration                                 : 24 min 19 s
Overall bit rate                         : 2 419 kb/s
Encoded date                             : UTC 2021-01-30 23:09:45
Writing application                      : mkvmerge v51.0.0 ('I Wish') 64-bit
Writing library                          : libebml v1.4.0 + libmatroska v1.6.2
Attachments                              : Athelas-BoldItalic_0.ttf / bahnschrift_0.ttf / ERASDEMI_0.TTF / monbaiti_0.ttf / FredokaOne-Regular_0.ttf / MAIAN_0.TTF

Video
ID                                       : 2
Format                                   : AVC
Format/Info                              : Advanced Video Codec
Format profile                           : High@L4.1
Format settings                          : CABAC / 4 Ref Frames
Format settings, CABAC                   : Yes
Format settings, ReFrames                : 4 frames
Codec ID                                 : V_MPEG4/ISO/AVC
Duration                                 : 24 min 19 s
Bit rate                                 : 2 092 kb/s
Width                                    : 1 280 pixels
Height                                   : 720 pixels
Display aspect ratio                     : 16:9
Frame rate mode                          : Constant
Frame rate                               : 23.976 (24000/1001) FPS
Color space                              : YUV
Chroma subsampling                       : 4:2:0
Bit depth                                : 8 bits
Scan type                                : Progressive
Bits/(Pixel*Frame)                       : 0.095
Stream size                              : 364 MiB (86%)
Writing library                          : x264 core 158 r2988M 7817004
Encoding settings                        : cabac=1 / ref=3 / deblock=1:0:0 / analyse=0x3:0x113 / me=hex / subme=7 / psy=1 / psy_rd=1.00:0.00 / mixed_ref=1 / me_range=16 / chroma_me=1 / trellis=1 / 8x8dct=1 / cqm=0 / deadzone=21,11 / fast_pskip=1 / chroma_qp_offset=-2 / threads=18 / lookahead_threads=3 / sliced_threads=0 / nr=0 / decimate=1 / interlaced=0 / bluray_compat=0 / constrained_intra=0 / bframes=3 / b_pyramid=2 / b_adapt=1 / b_bias=0 / direct=1 / weightb=1 / open_gop=0 / weightp=2 / keyint=250 / keyint_min=23 / scenecut=40 / intra_refresh=0 / rc_lookahead=40 / rc=crf / mbtree=1 / crf=21.0 / qcomp=0.60 / qpmin=0 / qpmax=69 / qpstep=4 / ip_ratio=1.40 / aq=1:1.00
Language                                 : Japanese
Default                                  : Yes
Forced                                   : No

Audio
ID                                       : 3
Format                                   : AAC LC
Format/Info                              : Advanced Audio Codec Low Complexity
Codec ID                                 : A_AAC-2
Duration                                 : 24 min 19 s
Bit rate                                 : 319 kb/s
Channel(s)                               : 2 channels
Channel layout                           : L R
Sampling rate                            : 48.0 kHz
Frame rate                               : 46.875 FPS (1024 SPF)
Compression mode                         : Lossy
Stream size                              : 55.5 MiB (13%)
Language                                 : Japanese
Default                                  : Yes
Forced                                   : No

Text
ID                                       : 1
Format                                   : ASS
Codec ID                                 : S_TEXT/ASS
Codec ID/Info                            : Advanced Sub Station Alpha
Duration                                 : 24 min 16 s
Bit rate                                 : 135 b/s
Count of elements                        : 399
Compression mode                         : Lossless
Stream size                              : 24.1 KiB (0%)
Title                                    : entameSubs
Language                                 : English
Default                                  : Yes
Forced                                   : No
beta
Anime DDL+NZB mirror
Current Time: 03/12/2021 13:57



About/FAQs

Discord