[entameSubs] Yu-Gi-Oh! SEVENS - Episode 17 [1080p].mkv


File Size719.1 MB (754,074,752 bytes)
DownloadAnonFiles | ClickNUpload | DropAPK | Free
MultiUp: Part1
  • BdUpload
  • DownAce
  • Fichier
  • FileCloud
  • Filerio
  • FilesCdn
  • IndiShare
  • Kbagi
  • Turbobit
  • UpToBox
  • Uppit
, Part2
  • BdUpload
  • DownAce
  • Fichier
  • FileCloud
  • Filerio
  • FilesCdn
  • IndiShare
  • Kbagi
  • Turbobit
  • UpToBox
  • Uppit

Sendspace: Part1, Part2, Part3
ZippyShare: Part1, Part2
HashesCRC32: 020CD0C5, MD5: B788D153A7008E227262DA1B2E1DFC8A, SHA1: 0EA7CF58E124FB03DF7667F8BF9A60320077235D, SHA256: 5D114EF5C6B8EF6D177645D46DD7C079042C1AB69BEEE7D403BEC550B2863CB8, ED2K: B502F0F0649984FADEA07A9BA34209F0
Screenshots
screenshotscreenshotscreenshotscreenshotscreenshot
SubtitlesAll Attachments | entameSubs [eng, ASS]
Additional Info
General
Unique ID                                : 272513079704409482614086770776484379573 (0xCD041C2BD7CD7D61748F917859547BB5)
Complete name                            : [entameSubs] Yu-Gi-Oh! SEVENS - Episode 17 [1080p].mkv
Format                                   : Matroska
Format version                           : Version 4
File size                                : 719 MiB
Duration                                 : 24 min 0 s
Overall bit rate                         : 4 189 kb/s
Encoded date                             : UTC 2020-10-14 21:51:44
Writing application                      : mkvmerge v51.0.0 ('I Wish') 64-bit
Writing library                          : libebml v1.4.0 + libmatroska v1.6.2
Attachments                              : Athelas-BoldItalic_0.ttf / bahnschrift_0.ttf

Video
ID                                       : 1
Format                                   : AVC
Format/Info                              : Advanced Video Codec
Format profile                           : High@L4
Format settings                          : CABAC / 4 Ref Frames
Format settings, CABAC                   : Yes
Format settings, ReFrames                : 4 frames
Codec ID                                 : V_MPEG4/ISO/AVC
Duration                                 : 23 min 59 s
Bit rate                                 : 3 991 kb/s
Width                                    : 1 920 pixels
Height                                   : 1 080 pixels
Display aspect ratio                     : 16:9
Frame rate mode                          : Constant
Frame rate                               : 29.970 (30000/1001) FPS
Color space                              : YUV
Chroma subsampling                       : 4:2:0
Bit depth                                : 8 bits
Scan type                                : Progressive
Bits/(Pixel*Frame)                       : 0.064
Stream size                              : 685 MiB (95%)
Default                                  : Yes
Forced                                   : No
Color range                              : Limited
Color primaries                          : BT.709
Transfer characteristics                 : BT.709
Matrix coefficients                      : BT.709

Audio
ID                                       : 2
Format                                   : AAC LC
Format/Info                              : Advanced Audio Codec Low Complexity
Codec ID                                 : A_AAC-2
Duration                                 : 24 min 0 s
Bit rate                                 : 192 kb/s
Channel(s)                               : 2 channels
Channel layout                           : L R
Sampling rate                            : 48.0 kHz
Frame rate                               : 46.875 FPS (1024 SPF)
Compression mode                         : Lossy
Stream size                              : 32.9 MiB (5%)
Language                                 : Japanese
Default                                  : Yes
Forced                                   : No

Text
ID                                       : 3
Format                                   : ASS
Codec ID                                 : S_TEXT/ASS
Codec ID/Info                            : Advanced Sub Station Alpha
Duration                                 : 23 min 45 s
Bit rate                                 : 131 b/s
Count of elements                        : 423
Compression mode                         : Lossless
Stream size                              : 22.9 KiB (0%)
Title                                    : entameSubs
Language                                 : English
Default                                  : Yes
Forced                                   : No
beta
Anime DDL+NZB mirror
Current Time: 02/12/2021 09:51



About/FAQs

Discord