[Eng Sub] Rebirth Ep #46 [27D39F88].mp4


File Size16.57 MB (17,377,710 bytes)
DownloadAnonFiles | ClickNUpload | DropAPK | Free | MultiUp
  • BdUpload
  • DownAce
  • Fichier
  • FileCloud
  • Filerio
  • FilesCdn
  • IndiShare
  • Kbagi
  • Turbobit
  • UpToBox
  • Uppit
| SolidFiles | ZippyShare
HashesCRC32: 27D39F88, MD5: 2765E276ED1380005FFA19402CE12ADB, SHA1: 8061CDBFA6E289BD1BAE1A6995708FDCE4225086, SHA256: D0E4D35C9049132F4CC17E10E12931C50003B6260A2546BD68B90622DE6C3B0E, ED2K: 9F9E9D35490F95EF71A1AEFB659ABDC5
Screenshots
screenshotscreenshotscreenshot
Additional Info
General
Complete name                            : [Eng Sub] Rebirth Ep #46 [27D39F88].mp4
Format                                   : MPEG-4
Format profile                           : Base Media / Version 2
Codec ID                                 : mp42 (isom/mp42)
File size                                : 16.6 MiB
Duration                                 : 3 min 12 s
Overall bit rate mode                    : Variable
Overall bit rate                         : 723 kb/s
Encoded date                             : UTC 2021-06-10 10:15:20
Tagged date                              : UTC 2021-06-10 10:15:20
gsst                                     : 0
gstd                                     : 192493

Video
ID                                       : 1
Format                                   : AVC
Format/Info                              : Advanced Video Codec
Format profile                           : High@L3.1
Format settings                          : CABAC / 3 Ref Frames
Format settings, CABAC                   : Yes
Format settings, ReFrames                : 3 frames
Codec ID                                 : avc1
Codec ID/Info                            : Advanced Video Coding
Duration                                 : 3 min 12 s
Bit rate                                 : 589 kb/s
Width                                    : 1 280 pixels
Height                                   : 720 pixels
Display aspect ratio                     : 16:9
Frame rate mode                          : Constant
Frame rate                               : 23.976 (24000/1001) FPS
Color space                              : YUV
Chroma subsampling                       : 4:2:0
Bit depth                                : 8 bits
Scan type                                : Progressive
Bits/(Pixel*Frame)                       : 0.027
Stream size                              : 13.5 MiB (82%)
Title                                    : ISO Media file produced by Google Inc. Created on: 06/10/2021.
Encoded date                             : UTC 2021-06-10 10:15:20
Tagged date                              : UTC 2021-06-10 10:15:20
Color range                              : Limited
Color primaries                          : BT.709
Transfer characteristics                 : BT.709
Matrix coefficients                      : BT.709
Codec configuration box                  : avcC

Audio
ID                                       : 2
Format                                   : AAC LC
Format/Info                              : Advanced Audio Codec Low Complexity
Codec ID                                 : mp4a-40-2
Duration                                 : 3 min 12 s
Bit rate mode                            : Variable
Bit rate                                 : 128 kb/s
Channel(s)                               : 2 channels
Channel layout                           : L R
Sampling rate                            : 44.1 kHz
Frame rate                               : 43.066 FPS (1024 SPF)
Compression mode                         : Lossy
Stream size                              : 2.94 MiB (18%)
Title                                    : ISO Media file produced by Google Inc. Created on: 06/10/2021.
Language                                 : English
Encoded date                             : UTC 2021-06-10 10:15:20
Tagged date                              : UTC 2021-06-10 10:15:20
beta
Anime DDL+NZB mirror
Current Time: 26/07/2021 22:44



About/FAQs