File Size301.0 MB (315,586,943 bytes)
DownloadAnonFiles | ClickNUpload | DropAPK | Free | MultiUp
  • BdUpload
  • DownAce
  • Fichier
  • FileCloud
  • Filerio
  • FilesCdn
  • IndiShare
  • Kbagi
  • Turbobit
  • UpToBox
  • Uppit
| SolidFiles | ZippyShare
Sendspace: Part1, Part2
HashesCRC32: 8F5A3274, MD5: 37304E713768586F7A56008B40154BF4, SHA1: F78DFD63CC322EAA6A59A554FDCCCCE2F36B9897, SHA256: 8B8E00BFD9843D56139893E10D9E2CEA7247D4C3FED4AFB87B3407453A2B15D3, ED2K: FF37415FB9BB55BDABB585AC54A053E9
Screenshots
screenshotscreenshotscreenshotscreenshotscreenshot
SubtitlesAll Attachments | eng [ASS]
Additional Info
General
Unique ID                                : 28537212365973859830953140993493257976 (0x15781132DF4217F3177ECBD4701F4EF8)
Complete name                            : [EMBER] Major 2nd S2 - 11.mkv
Format                                   : Matroska
Format version                           : Version 4
File size                                : 301 MiB
Duration                                 : 24 min 30 s
Overall bit rate                         : 1 717 kb/s
Encoded date                             : UTC 2020-08-01 12:52:14
Writing application                      : mkvmerge v48.0.0 ('Fortress Around Your Heart') 64-bit
Writing library                          : libebml v1.4.0 + libmatroska v1.6.0
Attachments                              : OpenSans-Semibold.ttf

Video
ID                                       : 2
Format                                   : HEVC
Format/Info                              : High Efficiency Video Coding
Format profile                           : Main@L4@Main
Codec ID                                 : V_MPEGH/ISO/HEVC
Duration                                 : 24 min 30 s
Bit rate                                 : 1 586 kb/s
Width                                    : 1 920 pixels
Height                                   : 1 080 pixels
Display aspect ratio                     : 16:9
Frame rate mode                          : Constant
Frame rate                               : 23.976 (24000/1001) FPS
Color space                              : YUV
Chroma subsampling                       : 4:2:0
Bit depth                                : 8 bits
Bits/(Pixel*Frame)                       : 0.032
Stream size                              : 278 MiB (92%)
Default                                  : Yes
Forced                                   : No

Audio
ID                                       : 1
Format                                   : AAC LC
Format/Info                              : Advanced Audio Codec Low Complexity
Codec ID                                 : A_AAC-2
Duration                                 : 24 min 30 s
Bit rate                                 : 128 kb/s
Channel(s)                               : 2 channels
Channel layout                           : L R
Sampling rate                            : 44.1 kHz
Frame rate                               : 43.066 FPS (1024 SPF)
Compression mode                         : Lossy
Stream size                              : 22.4 MiB (7%)
Language                                 : Japanese
Default                                  : Yes
Forced                                   : No

Text
ID                                       : 3
Format                                   : ASS
Codec ID                                 : S_TEXT/ASS
Codec ID/Info                            : Advanced Sub Station Alpha
Duration                                 : 24 min 23 s
Bit rate                                 : 167 b/s
Count of elements                        : 393
Compression mode                         : Lossless
Stream size                              : 29.9 KiB (0%)
Language                                 : English
Default                                  : No
Forced                                   : No
beta
Anime DDL+NZB mirror
Current Time: 21/09/2020 15:58



About/FAQs