File Size318.9 MB (334,346,711 bytes)
DownloadAnonFiles | ClickNUpload | DropAPK | Free | MultiUp
  • BdUpload
  • DownAce
  • Fichier
  • FileCloud
  • Filerio
  • FilesCdn
  • IndiShare
  • Kbagi
  • Turbobit
  • UpToBox
  • Uppit
| SolidFiles | ZippyShare
Sendspace: Part1, Part2
HashesCRC32: B7C84037, MD5: 83E5DC6C04878B140AD7DD326679F435, SHA1: F9F05F6EC25F84F01BA2BD2EF3BECA8D643C3E86, SHA256: 8CCA6CB8768B428D96610B5F3542D5E09517781C67B3113026A4F61B96B61EEB, ED2K: E25A6678869C2A3CD08B66611F6B9C4C
Screenshots
screenshotscreenshotscreenshotscreenshotscreenshot
SubtitlesAll Attachments | eng [ASS]
Additional Info
General
Unique ID                                : 270280676661540067508516221289956241802 (0xCB562A34145B862A2C71FAB447A5F18A)
Complete name                            : [EMBER] Lapis ReLiGHTs - 05.mkv
Format                                   : Matroska
Format version                           : Version 4
File size                                : 319 MiB
Duration                                 : 24 min 21 s
Overall bit rate                         : 1 831 kb/s
Encoded date                             : UTC 2020-08-01 15:37:50
Writing application                      : mkvmerge v48.0.0 ('Fortress Around Your Heart') 64-bit
Writing library                          : libebml v1.4.0 + libmatroska v1.6.0
Attachments                              : OpenSans-Semibold.ttf

Video
ID                                       : 2
Format                                   : HEVC
Format/Info                              : High Efficiency Video Coding
Format profile                           : Main@L4@Main
Codec ID                                 : V_MPEGH/ISO/HEVC
Duration                                 : 24 min 21 s
Bit rate                                 : 1 574 kb/s
Width                                    : 1 920 pixels
Height                                   : 1 080 pixels
Display aspect ratio                     : 16:9
Frame rate mode                          : Constant
Frame rate                               : 23.976 (24000/1001) FPS
Color space                              : YUV
Chroma subsampling                       : 4:2:0
Bit depth                                : 8 bits
Bits/(Pixel*Frame)                       : 0.032
Stream size                              : 274 MiB (86%)
Default                                  : Yes
Forced                                   : No

Audio
ID                                       : 1
Format                                   : AAC LC
Format/Info                              : Advanced Audio Codec Low Complexity
Codec ID                                 : A_AAC-2
Duration                                 : 24 min 21 s
Bit rate                                 : 253 kb/s
Channel(s)                               : 2 channels
Channel layout                           : L R
Sampling rate                            : 48.0 kHz
Frame rate                               : 46.875 FPS (1024 SPF)
Compression mode                         : Lossy
Stream size                              : 44.1 MiB (14%)
Language                                 : Japanese
Default                                  : Yes
Forced                                   : No

Text
ID                                       : 3
Format                                   : ASS
Codec ID                                 : S_TEXT/ASS
Codec ID/Info                            : Advanced Sub Station Alpha
Duration                                 : 21 min 1 s
Bit rate                                 : 101 b/s
Count of elements                        : 309
Compression mode                         : Lossless
Stream size                              : 15.6 KiB (0%)
Language                                 : English
Default                                  : No
Forced                                   : No
beta
Anime DDL+NZB mirror
Current Time: 21/09/2020 15:43



About/FAQs