File Size306.9 MB (321,762,752 bytes)
DownloadAnonFiles | ClickNUpload | DropAPK | Free | MultiUp
  • BdUpload
  • DownAce
  • Fichier
  • FileCloud
  • Filerio
  • FilesCdn
  • IndiShare
  • Kbagi
  • Turbobit
  • UpToBox
  • Uppit
| SolidFiles | ZippyShare
HashesCRC32: 471FE13B, MD5: A6B73CFFC2B57A42B90366E03F6446C0, SHA1: 86D473C1F8F8A60C6D6E70EF73FB004EAD50774E, SHA256: AF8E9D14721AFAF3C4A8A2C961637C67BC41A3D786007600BB19E84C9FD35EEF, ED2K: 6F8A2695804BC0AA1C08B79E519F0CDE
Screenshots
screenshotscreenshotscreenshotscreenshotscreenshot
SubtitlesAll Attachments | English subs [eng, ASS]
Additional Info
General
Unique ID                                : 40109142905443378017616829399325185995 (0x1E2CBD6C7AFD93DDBA38AF622AAF97CB)
Complete name                            : [EMBER] Haikyuu!! To the Top S2 - 12.mkv
Format                                   : Matroska
Format version                           : Version 4
File size                                : 307 MiB
Duration                                 : 23 min 57 s
Overall bit rate                         : 1 791 kb/s
Encoded date                             : UTC 2020-12-18 20:43:50
Writing application                      : mkvmerge v33.0.0 ('A Little Bit of Madness') 64-bit
Writing library                          : libebml v1.3.7 + libmatroska v1.5.0
Attachments                              : Roboto-Medium.ttf / Roboto-MediumItalic.ttf / arial.ttf / arialbd.ttf / comic.ttf / comicbd.ttf / times.ttf / timesbd.ttf / trebuc.ttf / trebucbd.ttf / verdana.ttf / verdanab.ttf

Video
ID                                       : 3
Format                                   : HEVC
Format/Info                              : High Efficiency Video Coding
Format profile                           : Main@L4@Main
Codec ID                                 : V_MPEGH/ISO/HEVC
Duration                                 : 23 min 57 s
Bit rate                                 : 1 629 kb/s
Width                                    : 1 920 pixels
Height                                   : 1 080 pixels
Display aspect ratio                     : 16:9
Frame rate mode                          : Constant
Frame rate                               : 23.976 (24000/1001) FPS
Color space                              : YUV
Chroma subsampling                       : 4:2:0
Bit depth                                : 8 bits
Bits/(Pixel*Frame)                       : 0.033
Stream size                              : 279 MiB (91%)
Default                                  : Yes
Forced                                   : No
Color range                              : Limited
Color primaries                          : BT.709
Transfer characteristics                 : BT.709
Matrix coefficients                      : BT.709

Audio
ID                                       : 1
Format                                   : AAC LC
Format/Info                              : Advanced Audio Codec Low Complexity
Codec ID                                 : A_AAC-2
Duration                                 : 23 min 57 s
Bit rate                                 : 128 kb/s
Channel(s)                               : 2 channels
Channel layout                           : L R
Sampling rate                            : 44.1 kHz
Frame rate                               : 43.066 FPS (1024 SPF)
Compression mode                         : Lossy
Stream size                              : 21.9 MiB (7%)
Language                                 : Japanese
Default                                  : Yes
Forced                                   : No

Text
ID                                       : 2
Format                                   : ASS
Codec ID                                 : S_TEXT/ASS
Codec ID/Info                            : Advanced Sub Station Alpha
Duration                                 : 23 min 43 s
Bit rate                                 : 129 b/s
Count of elements                        : 337
Compression mode                         : Lossless
Stream size                              : 22.5 KiB (0%)
Title                                    : English subs
Language                                 : English
Default                                  : Yes
Forced                                   : No
beta
Anime DDL+NZB mirror
Current Time: 03/12/2021 13:45



About/FAQs

Discord