[DulE] Pocket Monsters (Pokemon 2019) - 007 - The Hoenn Region, Site of Fierce Fights! The Battle Frontier Challenge!! [1080p][ENG-Sub][10bit][HEVC][x265].mkv


File Size385.4 MB (404,127,078 bytes)
DownloadClickNUpload | Jheberg | MultiUp
  • BdUpload
  • DownAce
  • Fichier
  • FileCloud
  • Filerio
  • FilesCdn
  • IndiShare
  • Kbagi
  • Turbobit
  • UpToBox
  • Uppit
| SolidFiles | UploadFiles | ZippyShare
HashesCRC32: ED979626, MD5: 1D7A014A4D90C2BEECA18EAB53C73DFD, SHA1: 2D4139D49133A9BB6B9151CC67C5A2A1B3D9ACFF, SHA256: 223E8B32F91B1F86D0C5FBD6C132663DAFFE132319DB8290E8A5D9CE1E49AF39, ED2K: 6B2E905D805DAD48C594E513382963D0
Screenshots
screenshotscreenshotscreenshotscreenshotscreenshot
SubtitlesAll Attachments | eng [ASS]
Additional Info
General
Unique ID                                : 222842860216286469889322505677238186221 (0xA7A5F946EA889039819D59262D3830ED)
Complete name                            : [DulE] Pocket Monsters (Pokemon 2019) - 007 - The Hoenn Region, Site of Fierce Fights! The Battle Frontier Challenge!! [1080p][ENG-Sub][10bit][HEVC][x265].mkv
Format                                   : Matroska
Format version                           : Version 4
File size                                : 385 MiB
Duration                                 : 23 min 35 s
Overall bit rate                         : 2 283 kb/s
Encoded date                             : UTC 2019-12-30 01:23:55
Writing application                      : mkvmerge v9.9.0 ('Pick Up') 64bit
Writing library                          : libebml v1.3.4 + libmatroska v1.4.5 / Lavf57.73.100
Attachments                              : Candarai.ttf / Candaraz.ttf / FOT-AokaneStd-EB.otf / FOT-KurokaneStd-EB.otf / HummingMod_nojapanese.otf / nintendoP_Humming-E_003.ttf / ヒラギノ角ゴ W5.ttc / Candara.ttf / Candarab.ttf
Writing application                      : Internet Friendly Media Encoder v7.7 ('Prism Ark')
Writing library                          : IFME v7.7 amd64 windows

Video
ID                                       : 1
Format                                   : HEVC
Format/Info                              : High Efficiency Video Coding
Format profile                           : Main 10@L4@Main
Codec ID                                 : V_MPEGH/ISO/HEVC
Duration                                 : 23 min 35 s
Bit rate                                 : 1 963 kb/s
Width                                    : 1 920 pixels
Height                                   : 1 080 pixels
Display aspect ratio                     : 16:9
Frame rate mode                          : Constant
Frame rate                               : 23.976 (24000/1001) FPS
Original frame rate                      : 23.976 (23976/1000) FPS
Color space                              : YUV
Chroma subsampling                       : 4:2:0
Bit depth                                : 10 bits
Bits/(Pixel*Frame)                       : 0.039
Stream size                              : 331 MiB (86%)
Writing library                          : x265 2.6+13-6b079854e56e:[Windows][GCC 7.1.0][64 bit] 10bit
Encoding settings                        : cpuid=1173503 / frame-threads=3 / numa-pools=8 / wpp / no-pmode / no-pme / no-psnr / no-ssim / log-level=2 / input-csp=1 / input-res=1920x1080 / interlace=0 / total-frames=34189 / level-idc=0 / high-tier=1 / uhd-bd=0 / ref=1 / no-allow-non-conformance / no-repeat-headers / annexb / no-aud / no-hrd / info / hash=0 / no-temporal-layers / open-gop / min-keyint=23 / keyint=250 / gop-lookahead=0 / bframes=3 / b-adapt=0 / b-pyramid / bframe-bias=0 / rc-lookahead=5 / lookahead-slices=6 / scenecut=0 / no-intra-refresh / ctu=32 / min-cu-size=16 / no-rect / no-amp / max-tu-size=32 / tu-inter-depth=1 / tu-intra-depth=1 / limit-tu=0 / rdoq-level=0 / dynamic-rd=0.00 / no-ssim-rd / no-signhide / no-tskip / nr-intra=0 / nr-inter=0 / no-constrained-intra / strong-intra-smoothing / max-merge=2 / limit-refs=0 / no-limit-modes / me=0 / subme=0 / merange=57 / temporal-mvp / no-weightp / no-weightb / no-analyze-src-pics / deblock=0:0 / no-sao / no-sao-non-deblock / rd=2 / early-skip / rskip / fast-intra / no-tskip-fast / no-cu-lossless / no-b-intra / no-splitrd-skip / rdpenalty=0 / psy-rd=2.00 / psy-rdoq=0.00 / no-rd-refine / analysis-reuse-mode=0 / no-lossless / cbqpoffs=0 / crqpoffs=0 / rc=crf / crf=20.0 / qcomp=0.60 / qpstep=4 / stats-write=0 / stats-read=0 / ipratio=1.40 / pbratio=1.30 / aq-mode=1 / aq-strength=0.00 / cutree / zone-count=0 / no-strict-cbr / qg-size=32 / no-rc-grain / qpmax=69 / qpmin=0 / no-const-vbv / sar=1 / overscan=0 / videoformat=5 / range=0 / colorprim=2 / transfer=2 / colormatrix=2 / chromaloc=0 / display-window=0 / max-cll=0,0 / min-luma=0 / max-luma=1023 / log2-max-poc-lsb=8 / vui-timing-info / vui-hrd-info / slices=1 / no-opt-qp-pps / no-opt-ref-list-length-pps / no-multi-pass-opt-rps / scenecut-bias=0.05 / no-opt-cu-delta-qp / no-aq-motion / no-hdr / no-hdr-opt / no-dhdr10-opt / analysis-reuse-level=5 / scale-factor=0 / refine-intra=0 / refine-inter=0 / refine-mv=0 / no-limit-sao / ctu-info=0 / no-lowpass-dct / refine-mv-type=0 / copy-pic=1
Language                                 : Japanese
Default                                  : Yes
Forced                                   : No

Audio
ID                                       : 2
Format                                   : E-AC-3
Format/Info                              : Enhanced AC-3
Commercial name                          : Dolby Digital Plus
Codec ID                                 : A_EAC3
Duration                                 : 23 min 35 s
Bit rate mode                            : Constant
Bit rate                                 : 224 kb/s
Channel(s)                               : 2 channels
Channel layout                           : L R
Sampling rate                            : 48.0 kHz
Frame rate                               : 31.250 FPS (1536 SPF)
Compression mode                         : Lossy
Stream size                              : 37.8 MiB (10%)
Language                                 : Japanese
Service kind                             : Complete Main
Default                                  : Yes
Forced                                   : No

Text
ID                                       : 3
Format                                   : ASS
Codec ID                                 : S_TEXT/ASS
Codec ID/Info                            : Advanced Sub Station Alpha
Duration                                 : 23 min 33 s
Bit rate                                 : 475 b/s
Count of elements                        : 678
Compression mode                         : Lossless
Stream size                              : 82.1 KiB (0%)
Language                                 : English
Default                                  : Yes
Forced                                   : No

Menu #1
00:00:00.000                             : :Part A
00:02:02.331                             : :Opening
00:03:30.503                             : :Part B
00:13:03.495                             : :Part C
00:21:44.476                             : :Ending
00:23:05.474                             : :Preview

Menu #2
00:00:00.000                             : :Part A
00:02:02.331                             : :Opening
00:03:30.503                             : :Part B
00:13:03.495                             : :Part C
00:21:44.476                             : :Ending
00:23:05.474                             : :Preview
beta
Anime DDL+NZB mirror
Current Time: 11/08/2020 00:39



About/FAQs