[DragsterPS] Welcome to the Ballroom S01E19 [1080p] [Japanese] [Multi-Subs] [E6FEEA36].mkv


File Size812.6 MB (852,048,855 bytes)
DownloadClickNUpload | Jheberg | MultiUp
  • BdUpload
  • DownAce
  • Fichier
  • Filerio
  • FilesCdn
  • IndiShare
  • Kbagi
  • Turbobit
  • UploadRocket
  • Uploading
  • Uppit
| OpenLoad | Upfile.mobi
Sendspace: Part1, Part2, Part3
SolidFiles: Part1, Part2
HashesCRC32: E6FEEA36, MD5: 22C11A066BA9BAEBABEA964E9B72A8B4, SHA1: 8D8A83B7590B8B52293EE48007BC57F09A12566D, SHA256: 8667F149ED64D6400BF75DA7D36DD5B4E01B7DDB7CD6A222CED4E8F500F92F3C, ED2K: C9230487251CC1A032851910CD351607
Screenshots
screenshotscreenshotscreenshotscreenshotscreenshot
SubtitlesAll Attachments | English [Full] [eng, SRT], Castilian [Full] [spa, SRT], Spanish [Full] [spa, SRT], French [Full] [fre, SRT], German [Full] [ger, SRT], Italian [Full] [ita, SRT], Brazilian Portuguese [Full] [por, SRT], Korean [Full] [kor, SRT]
Additional Info
General
Unique ID                                : 215219527237705265077579804354772158854 (0xA1E9C5F13F6210BC979206DCD31F4986)
Complete name                            : [DragsterPS] Welcome to the Ballroom S01E19 [1080p] [Japanese] [Multi-Subs] [E6FEEA36].mkv
Format                                   : Matroska
Format version                           : Version 4 / Version 2
File size                                : 813 MiB
Duration                                 : 24 min 9 s
Overall bit rate mode                    : Variable
Overall bit rate                         : 4 701 kb/s
Encoded date                             : UTC 2018-01-25 22:06:38
Writing application                      : mkvmerge v16.0.0 ('Protest') 32-bit
Writing library                          : libebml v1.3.5 + libmatroska v1.4.8

Video
ID                                       : 1
Format                                   : AVC
Format/Info                              : Advanced Video Codec
Format profile                           : High@L4
Format settings, CABAC                   : Yes
Format settings, ReFrames                : 4 frames
Codec ID                                 : V_MPEG4/ISO/AVC
Duration                                 : 24 min 9 s
Bit rate mode                            : Variable
Bit rate                                 : 4 474 kb/s
Maximum bit rate                         : 15.0 Mb/s
Width                                    : 1 920 pixels
Height                                   : 1 080 pixels
Display aspect ratio                     : 16:9
Frame rate mode                          : Constant
Frame rate                               : 23.976 (24000/1001) FPS
Color space                              : YUV
Chroma subsampling                       : 4:2:0
Bit depth                                : 8 bits
Scan type                                : Progressive
Bits/(Pixel*Frame)                       : 0.090
Stream size                              : 773 MiB (95%)
Default                                  : Yes
Forced                                   : No
Color range                              : Limited
Color primaries                          : BT.709
Transfer characteristics                 : BT.709
Matrix coefficients                      : BT.709

Audio
ID                                       : 2
Format                                   : E-AC-3
Format/Info                              : Enhanced Audio Coding 3
Format settings, Endianness              : Big
Codec ID                                 : A_EAC3
Duration                                 : 24 min 9 s
Bit rate mode                            : Constant
Bit rate                                 : 224 kb/s
Channel(s)                               : 2 channels
Channel positions                        : Front: L R
Sampling rate                            : 48.0 kHz
Frame rate                               : 187.500 FPS (256 spf)
Compression mode                         : Lossy
Stream size                              : 38.7 MiB (5%)
Title                                    : Japanese
Language                                 : Japanese
Default                                  : No
Forced                                   : No

Text #1
ID                                       : 3
Format                                   : UTF-8
Codec ID                                 : S_TEXT/UTF8
Codec ID/Info                            : UTF-8 Plain Text
Duration                                 : 24 min 0 s
Bit rate                                 : 61 b/s
Count of elements                        : 292
Stream size                              : 10.8 KiB (0%)
Title                                    : English [Full]
Language                                 : English
Default                                  : No
Forced                                   : No

Text #2
ID                                       : 4
Format                                   : UTF-8
Codec ID                                 : S_TEXT/UTF8
Codec ID/Info                            : UTF-8 Plain Text
Duration                                 : 24 min 2 s
Bit rate                                 : 59 b/s
Count of elements                        : 294
Stream size                              : 10.5 KiB (0%)
Title                                    : Castilian [Full]
Language                                 : Spanish
Default                                  : No
Forced                                   : No

Text #3
ID                                       : 5
Format                                   : UTF-8
Codec ID                                 : S_TEXT/UTF8
Codec ID/Info                            : UTF-8 Plain Text
Duration                                 : 24 min 2 s
Bit rate                                 : 67 b/s
Count of elements                        : 294
Stream size                              : 11.9 KiB (0%)
Title                                    : Spanish [Full]
Language                                 : Spanish
Default                                  : No
Forced                                   : No

Text #4
ID                                       : 6
Format                                   : UTF-8
Codec ID                                 : S_TEXT/UTF8
Codec ID/Info                            : UTF-8 Plain Text
Duration                                 : 24 min 0 s
Bit rate                                 : 61 b/s
Count of elements                        : 297
Stream size                              : 10.8 KiB (0%)
Title                                    : French [Full]
Language                                 : French
Default                                  : No
Forced                                   : No

Text #5
ID                                       : 7
Format                                   : UTF-8
Codec ID                                 : S_TEXT/UTF8
Codec ID/Info                            : UTF-8 Plain Text
Duration                                 : 24 min 0 s
Bit rate                                 : 61 b/s
Count of elements                        : 283
Stream size                              : 10.7 KiB (0%)
Title                                    : German [Full]
Language                                 : German
Default                                  : No
Forced                                   : No

Text #6
ID                                       : 8
Format                                   : UTF-8
Codec ID                                 : S_TEXT/UTF8
Codec ID/Info                            : UTF-8 Plain Text
Duration                                 : 24 min 2 s
Bit rate                                 : 63 b/s
Count of elements                        : 293
Stream size                              : 11.2 KiB (0%)
Title                                    : Italian [Full]
Language                                 : Italian
Default                                  : No
Forced                                   : No

Text #7
ID                                       : 9
Format                                   : UTF-8
Codec ID                                 : S_TEXT/UTF8
Codec ID/Info                            : UTF-8 Plain Text
Duration                                 : 24 min 2 s
Bit rate                                 : 59 b/s
Count of elements                        : 292
Stream size                              : 10.6 KiB (0%)
Title                                    : Brazilian Portuguese [Full]
Language                                 : Portuguese
Default                                  : No
Forced                                   : No

Text #8
ID                                       : 10
Format                                   : UTF-8
Codec ID                                 : S_TEXT/UTF8
Codec ID/Info                            : UTF-8 Plain Text
Duration                                 : 24 min 2 s
Bit rate                                 : 64 b/s
Count of elements                        : 294
Stream size                              : 11.4 KiB (0%)
Title                                    : Korean [Full]
Language                                 : Korean
Default                                  : No
Forced                                   : No

Other Files in this Torrent
[DragsterPS] Welcome to the Ballroom S01E19 [1080p] [Japanese] [Multi-Subs] [E6FEEA36].mkv
beta
Anime DDL+NZB mirror
Current Time: 03/06/2020 12:10



About/FAQs