[DragsterPS] Welcome to the Ballroom S01E18 [1080p] [Japanese] [Multi-Subs] [32FA27D7].mkv


File Size862.5 MB (904,384,625 bytes)
DownloadClickNUpload | Jheberg | MultiUp
  • BdUpload
  • DownAce
  • Fichier
  • Filerio
  • FilesCdn
  • IndiShare
  • Kbagi
  • Turbobit
  • UploadRocket
  • Uploading
  • Uppit
| OpenLoad | Upfile.mobi
Sendspace: Part1, Part2, Part3
SolidFiles: Part1, Part2
HashesCRC32: 32FA27D7, MD5: E6F3FC5100C59B7167CE55144E877AC8, SHA1: 2AE074E068E8DD83B0E14E13213F1A6EFA4940C1, SHA256: 4E891102B0F4C6832E9E8B5E553756C598778C808F5A98FADC4E7431C2E12CD5, ED2K: 25AF4F4AB7005D3C7E7127A5175BAB51
Screenshots
screenshotscreenshotscreenshotscreenshotscreenshot
SubtitlesAll Attachments | English [Full] [eng, SRT], Castilian [Full] [spa, SRT], Spanish [Full] [spa, SRT], French [Full] [fre, SRT], German [Full] [ger, SRT], Italian [Full] [ita, SRT], Brazilian Portuguese [Full] [por, SRT], Korean [Full] [kor, SRT]
Additional Info
General
Unique ID                                : 246018320307710150203390156588294246108 (0xB91567ADBE06A667ABC998BA801A8EDC)
Complete name                            : [DragsterPS] Welcome to the Ballroom S01E18 [1080p] [Japanese] [Multi-Subs] [32FA27D7].mkv
Format                                   : Matroska
Format version                           : Version 4 / Version 2
File size                                : 862 MiB
Duration                                 : 24 min 10 s
Overall bit rate mode                    : Variable
Overall bit rate                         : 4 990 kb/s
Encoded date                             : UTC 2018-01-25 22:06:31
Writing application                      : mkvmerge v16.0.0 ('Protest') 32-bit
Writing library                          : libebml v1.3.5 + libmatroska v1.4.8

Video
ID                                       : 1
Format                                   : AVC
Format/Info                              : Advanced Video Codec
Format profile                           : High@L4
Format settings, CABAC                   : Yes
Format settings, ReFrames                : 4 frames
Codec ID                                 : V_MPEG4/ISO/AVC
Duration                                 : 24 min 10 s
Bit rate mode                            : Variable
Bit rate                                 : 4 763 kb/s
Maximum bit rate                         : 15.0 Mb/s
Width                                    : 1 920 pixels
Height                                   : 1 080 pixels
Display aspect ratio                     : 16:9
Frame rate mode                          : Constant
Frame rate                               : 23.976 (24000/1001) FPS
Color space                              : YUV
Chroma subsampling                       : 4:2:0
Bit depth                                : 8 bits
Scan type                                : Progressive
Bits/(Pixel*Frame)                       : 0.096
Stream size                              : 823 MiB (95%)
Default                                  : Yes
Forced                                   : No
Color range                              : Limited
Color primaries                          : BT.709
Transfer characteristics                 : BT.709
Matrix coefficients                      : BT.709

Audio
ID                                       : 2
Format                                   : E-AC-3
Format/Info                              : Enhanced Audio Coding 3
Format settings, Endianness              : Big
Codec ID                                 : A_EAC3
Duration                                 : 24 min 9 s
Bit rate mode                            : Constant
Bit rate                                 : 224 kb/s
Channel(s)                               : 2 channels
Channel positions                        : Front: L R
Sampling rate                            : 48.0 kHz
Frame rate                               : 187.500 FPS (256 spf)
Compression mode                         : Lossy
Stream size                              : 38.7 MiB (4%)
Title                                    : Japanese
Language                                 : Japanese
Default                                  : No
Forced                                   : No

Text #1
ID                                       : 3
Format                                   : UTF-8
Codec ID                                 : S_TEXT/UTF8
Codec ID/Info                            : UTF-8 Plain Text
Duration                                 : 24 min 1 s
Bit rate                                 : 61 b/s
Count of elements                        : 301
Stream size                              : 10.8 KiB (0%)
Title                                    : English [Full]
Language                                 : English
Default                                  : No
Forced                                   : No

Text #2
ID                                       : 4
Format                                   : UTF-8
Codec ID                                 : S_TEXT/UTF8
Codec ID/Info                            : UTF-8 Plain Text
Duration                                 : 24 min 4 s
Bit rate                                 : 60 b/s
Count of elements                        : 305
Stream size                              : 10.8 KiB (0%)
Title                                    : Castilian [Full]
Language                                 : Spanish
Default                                  : No
Forced                                   : No

Text #3
ID                                       : 5
Format                                   : UTF-8
Codec ID                                 : S_TEXT/UTF8
Codec ID/Info                            : UTF-8 Plain Text
Duration                                 : 24 min 4 s
Bit rate                                 : 61 b/s
Count of elements                        : 305
Stream size                              : 10.8 KiB (0%)
Title                                    : Spanish [Full]
Language                                 : Spanish
Default                                  : No
Forced                                   : No

Text #4
ID                                       : 6
Format                                   : UTF-8
Codec ID                                 : S_TEXT/UTF8
Codec ID/Info                            : UTF-8 Plain Text
Duration                                 : 24 min 4 s
Bit rate                                 : 66 b/s
Count of elements                        : 303
Stream size                              : 11.8 KiB (0%)
Title                                    : French [Full]
Language                                 : French
Default                                  : No
Forced                                   : No

Text #5
ID                                       : 7
Format                                   : UTF-8
Codec ID                                 : S_TEXT/UTF8
Codec ID/Info                            : UTF-8 Plain Text
Duration                                 : 24 min 3 s
Bit rate                                 : 66 b/s
Count of elements                        : 301
Stream size                              : 11.6 KiB (0%)
Title                                    : German [Full]
Language                                 : German
Default                                  : No
Forced                                   : No

Text #6
ID                                       : 8
Format                                   : UTF-8
Codec ID                                 : S_TEXT/UTF8
Codec ID/Info                            : UTF-8 Plain Text
Duration                                 : 24 min 4 s
Bit rate                                 : 63 b/s
Count of elements                        : 304
Stream size                              : 11.2 KiB (0%)
Title                                    : Italian [Full]
Language                                 : Italian
Default                                  : No
Forced                                   : No

Text #7
ID                                       : 9
Format                                   : UTF-8
Codec ID                                 : S_TEXT/UTF8
Codec ID/Info                            : UTF-8 Plain Text
Duration                                 : 24 min 4 s
Bit rate                                 : 65 b/s
Count of elements                        : 304
Stream size                              : 11.6 KiB (0%)
Title                                    : Brazilian Portuguese [Full]
Language                                 : Portuguese
Default                                  : No
Forced                                   : No

Text #8
ID                                       : 10
Format                                   : UTF-8
Codec ID                                 : S_TEXT/UTF8
Codec ID/Info                            : UTF-8 Plain Text
Duration                                 : 24 min 4 s
Bit rate                                 : 64 b/s
Count of elements                        : 305
Stream size                              : 11.3 KiB (0%)
Title                                    : Korean [Full]
Language                                 : Korean
Default                                  : No
Forced                                   : No

Other Files in this Torrent
[DragsterPS] Welcome to the Ballroom S01E18 [1080p] [Japanese] [Multi-Subs] [32FA27D7].mkv
beta
Anime DDL+NZB mirror
Current Time: 01/10/2020 16:18



About/FAQs