[DragsterPS] Welcome to the Ballroom S01E06 [1080p] [Japanese] [Multi-Subs] [9B94440B].mkv


File Size893.9 MB (937,274,073 bytes)
DownloadClickNUpload | Jheberg | MultiUp
  • BdUpload
  • DownAce
  • Fichier
  • Filerio
  • FilesCdn
  • IndiShare
  • Kbagi
  • Turbobit
  • UploadRocket
  • Uploading
  • Uppit
| OpenLoad | Upfile.mobi
Sendspace: Part1, Part2, Part3
SolidFiles: Part1, Part2
Encrypted DownloadDirect
Password:
HashesCRC32: 9B94440B, MD5: FE0653C51BCA3442068BB2E034ABF453, SHA1: 984447AA7CADD8DF39A6336B59489C0603585AF3, SHA256: A0F72AED73009BCF00C1FEBEE51455E52DE95F513BC01EED536CFAB0C1B44C3B, ED2K: 53605776FD8EBA810AFDAC19FBEA62FE
Screenshots
screenshotscreenshotscreenshotscreenshotscreenshot
SubtitlesAll Attachments | English [Full] [eng, SRT], Castilian [Full] [spa, SRT], Spanish [Full] [spa, SRT], French [Full] [fre, SRT], German [Full] [ger, SRT], Italian [Full] [ita, SRT], Brazilian Portuguese [Full] [por, SRT], Korean [Full] [kor, SRT]
Additional Info
General
Unique ID                                : 207909313796192730698420038296402079867 (0x9C69E097C32659C3AAB526228403307B)
Complete name                            : [DragsterPS] Welcome to the Ballroom S01E06 [1080p] [Japanese] [Multi-Subs] [9B94440B].mkv
Format                                   : Matroska
Format version                           : Version 4 / Version 2
File size                                : 894 MiB
Duration                                 : 24 min 9 s
Overall bit rate mode                    : Variable
Overall bit rate                         : 5 171 kb/s
Encoded date                             : UTC 2018-01-25 22:05:09
Writing application                      : mkvmerge v16.0.0 ('Protest') 32-bit
Writing library                          : libebml v1.3.5 + libmatroska v1.4.8

Video
ID                                       : 1
Format                                   : AVC
Format/Info                              : Advanced Video Codec
Format profile                           : High@L4
Format settings, CABAC                   : Yes
Format settings, ReFrames                : 4 frames
Codec ID                                 : V_MPEG4/ISO/AVC
Duration                                 : 24 min 9 s
Bit rate mode                            : Variable
Bit rate                                 : 4 944 kb/s
Maximum bit rate                         : 15.0 Mb/s
Width                                    : 1 920 pixels
Height                                   : 1 080 pixels
Display aspect ratio                     : 16:9
Frame rate mode                          : Constant
Frame rate                               : 23.976 (24000/1001) FPS
Color space                              : YUV
Chroma subsampling                       : 4:2:0
Bit depth                                : 8 bits
Scan type                                : Progressive
Bits/(Pixel*Frame)                       : 0.099
Stream size                              : 855 MiB (96%)
Default                                  : Yes
Forced                                   : No
Color range                              : Limited
Color primaries                          : BT.709
Transfer characteristics                 : BT.709
Matrix coefficients                      : BT.709

Audio
ID                                       : 2
Format                                   : E-AC-3
Format/Info                              : Enhanced Audio Coding 3
Format settings, Endianness              : Big
Codec ID                                 : A_EAC3
Duration                                 : 24 min 9 s
Bit rate mode                            : Constant
Bit rate                                 : 224 kb/s
Channel(s)                               : 2 channels
Channel positions                        : Front: L R
Sampling rate                            : 48.0 kHz
Frame rate                               : 187.500 FPS (256 spf)
Compression mode                         : Lossy
Stream size                              : 38.7 MiB (4%)
Title                                    : Japanese
Language                                 : Japanese
Default                                  : No
Forced                                   : No

Text #1
ID                                       : 3
Format                                   : UTF-8
Codec ID                                 : S_TEXT/UTF8
Codec ID/Info                            : UTF-8 Plain Text
Duration                                 : 24 min 6 s
Bit rate                                 : 60 b/s
Count of elements                        : 331
Stream size                              : 10.7 KiB (0%)
Title                                    : English [Full]
Language                                 : English
Default                                  : No
Forced                                   : No

Text #2
ID                                       : 4
Format                                   : UTF-8
Codec ID                                 : S_TEXT/UTF8
Codec ID/Info                            : UTF-8 Plain Text
Duration                                 : 24 min 8 s
Bit rate                                 : 63 b/s
Count of elements                        : 334
Stream size                              : 11.2 KiB (0%)
Title                                    : Castilian [Full]
Language                                 : Spanish
Default                                  : No
Forced                                   : No

Text #3
ID                                       : 5
Format                                   : UTF-8
Codec ID                                 : S_TEXT/UTF8
Codec ID/Info                            : UTF-8 Plain Text
Duration                                 : 24 min 8 s
Bit rate                                 : 64 b/s
Count of elements                        : 337
Stream size                              : 11.3 KiB (0%)
Title                                    : Spanish [Full]
Language                                 : Spanish
Default                                  : No
Forced                                   : No

Text #4
ID                                       : 6
Format                                   : UTF-8
Codec ID                                 : S_TEXT/UTF8
Codec ID/Info                            : UTF-8 Plain Text
Duration                                 : 24 min 8 s
Bit rate                                 : 63 b/s
Count of elements                        : 327
Stream size                              : 11.2 KiB (0%)
Title                                    : French [Full]
Language                                 : French
Default                                  : No
Forced                                   : No

Text #5
ID                                       : 7
Format                                   : UTF-8
Codec ID                                 : S_TEXT/UTF8
Codec ID/Info                            : UTF-8 Plain Text
Duration                                 : 24 min 6 s
Bit rate                                 : 64 b/s
Count of elements                        : 319
Stream size                              : 11.3 KiB (0%)
Title                                    : German [Full]
Language                                 : German
Default                                  : No
Forced                                   : No

Text #6
ID                                       : 8
Format                                   : UTF-8
Codec ID                                 : S_TEXT/UTF8
Codec ID/Info                            : UTF-8 Plain Text
Duration                                 : 24 min 8 s
Bit rate                                 : 65 b/s
Count of elements                        : 337
Stream size                              : 11.6 KiB (0%)
Title                                    : Italian [Full]
Language                                 : Italian
Default                                  : No
Forced                                   : No

Text #7
ID                                       : 9
Format                                   : UTF-8
Codec ID                                 : S_TEXT/UTF8
Codec ID/Info                            : UTF-8 Plain Text
Duration                                 : 24 min 8 s
Bit rate                                 : 64 b/s
Count of elements                        : 337
Stream size                              : 11.4 KiB (0%)
Title                                    : Brazilian Portuguese [Full]
Language                                 : Portuguese
Default                                  : No
Forced                                   : No

Text #8
ID                                       : 10
Format                                   : UTF-8
Codec ID                                 : S_TEXT/UTF8
Codec ID/Info                            : UTF-8 Plain Text
Duration                                 : 24 min 8 s
Bit rate                                 : 63 b/s
Count of elements                        : 338
Stream size                              : 11.2 KiB (0%)
Title                                    : Korean [Full]
Language                                 : Korean
Default                                  : No
Forced                                   : No

Other Files in this Torrent
[DragsterPS] Welcome to the Ballroom S01E06 [1080p] [Japanese] [Multi-Subs] [9B94440B].mkv
beta
Anime DDL+NZB mirror
Current Time: 21/01/2020 23:34



About/FAQs