[DragsterPS] Welcome to the Ballroom S01E03 [1080p] [Japanese] [Multi-Subs] [A157D72F].mkv


File Size868.7 MB (910,896,375 bytes)
DownloadClickNUpload | Jheberg | MultiUp
  • BdUpload
  • DownAce
  • Fichier
  • Filerio
  • FilesCdn
  • IndiShare
  • Kbagi
  • Turbobit
  • UploadRocket
  • Uploading
  • Uppit
| OpenLoad | Upfile.mobi
Sendspace: Part1, Part2, Part3
SolidFiles: Part1, Part2
Encrypted DownloadDirect
Password:
HashesCRC32: A157D72F, MD5: 9283FCB53992BD74832174AE008CE4B7, SHA1: EC6A750EEE2CA00781F4AC0E0BB67CF651C5E45E, SHA256: CE2BCFF4666EBCB2351549C3471D6D5FE204EE40528F399C055B3FDE4BD19DCA, ED2K: 43B7CC4A721A6949475F52CB3CD04B8A
Screenshots
screenshotscreenshotscreenshotscreenshotscreenshot
SubtitlesAll Attachments | English [Full] [eng, SRT], Castilian [Full] [spa, SRT], Spanish [Full] [spa, SRT], French [Full] [fre, SRT], German [Full] [ger, SRT], Italian [Full] [ita, SRT], Brazilian Portuguese [Full] [por, SRT], Korean [Full] [kor, SRT]
Additional Info
General
Unique ID                                : 239557493614279535257590805533260965694 (0xB43918543D97C2F88B34333E081EE73E)
Complete name                            : [DragsterPS] Welcome to the Ballroom S01E03 [1080p] [Japanese] [Multi-Subs] [A157D72F].mkv
Format                                   : Matroska
Format version                           : Version 4 / Version 2
File size                                : 869 MiB
Duration                                 : 24 min 9 s
Overall bit rate mode                    : Variable
Overall bit rate                         : 5 026 kb/s
Encoded date                             : UTC 2018-01-25 22:04:52
Writing application                      : mkvmerge v16.0.0 ('Protest') 32-bit
Writing library                          : libebml v1.3.5 + libmatroska v1.4.8

Video
ID                                       : 1
Format                                   : AVC
Format/Info                              : Advanced Video Codec
Format profile                           : High@L4
Format settings, CABAC                   : Yes
Format settings, ReFrames                : 4 frames
Codec ID                                 : V_MPEG4/ISO/AVC
Duration                                 : 24 min 9 s
Bit rate mode                            : Variable
Bit rate                                 : 4 799 kb/s
Maximum bit rate                         : 15.0 Mb/s
Width                                    : 1 920 pixels
Height                                   : 1 080 pixels
Display aspect ratio                     : 16:9
Frame rate mode                          : Constant
Frame rate                               : 23.976 (24000/1001) FPS
Color space                              : YUV
Chroma subsampling                       : 4:2:0
Bit depth                                : 8 bits
Scan type                                : Progressive
Bits/(Pixel*Frame)                       : 0.097
Stream size                              : 829 MiB (95%)
Default                                  : Yes
Forced                                   : No
Color range                              : Limited
Color primaries                          : BT.709
Transfer characteristics                 : BT.709
Matrix coefficients                      : BT.709

Audio
ID                                       : 2
Format                                   : E-AC-3
Format/Info                              : Enhanced Audio Coding 3
Format settings, Endianness              : Big
Codec ID                                 : A_EAC3
Duration                                 : 24 min 9 s
Bit rate mode                            : Constant
Bit rate                                 : 224 kb/s
Channel(s)                               : 2 channels
Channel positions                        : Front: L R
Sampling rate                            : 48.0 kHz
Frame rate                               : 187.500 FPS (256 spf)
Compression mode                         : Lossy
Stream size                              : 38.7 MiB (4%)
Title                                    : Japanese
Language                                 : Japanese
Default                                  : No
Forced                                   : No

Text #1
ID                                       : 3
Format                                   : UTF-8
Codec ID                                 : S_TEXT/UTF8
Codec ID/Info                            : UTF-8 Plain Text
Duration                                 : 24 min 6 s
Bit rate                                 : 49 b/s
Count of elements                        : 328
Stream size                              : 8.75 KiB (0%)
Title                                    : English [Full]
Language                                 : English
Default                                  : No
Forced                                   : No

Text #2
ID                                       : 4
Format                                   : UTF-8
Codec ID                                 : S_TEXT/UTF8
Codec ID/Info                            : UTF-8 Plain Text
Duration                                 : 24 min 7 s
Bit rate                                 : 53 b/s
Count of elements                        : 321
Stream size                              : 9.52 KiB (0%)
Title                                    : Castilian [Full]
Language                                 : Spanish
Default                                  : No
Forced                                   : No

Text #3
ID                                       : 5
Format                                   : UTF-8
Codec ID                                 : S_TEXT/UTF8
Codec ID/Info                            : UTF-8 Plain Text
Duration                                 : 24 min 7 s
Bit rate                                 : 57 b/s
Count of elements                        : 332
Stream size                              : 10.1 KiB (0%)
Title                                    : Spanish [Full]
Language                                 : Spanish
Default                                  : No
Forced                                   : No

Text #4
ID                                       : 6
Format                                   : UTF-8
Codec ID                                 : S_TEXT/UTF8
Codec ID/Info                            : UTF-8 Plain Text
Duration                                 : 24 min 7 s
Bit rate                                 : 54 b/s
Count of elements                        : 328
Stream size                              : 9.54 KiB (0%)
Title                                    : French [Full]
Language                                 : French
Default                                  : No
Forced                                   : No

Text #5
ID                                       : 7
Format                                   : UTF-8
Codec ID                                 : S_TEXT/UTF8
Codec ID/Info                            : UTF-8 Plain Text
Duration                                 : 24 min 4 s
Bit rate                                 : 51 b/s
Count of elements                        : 315
Stream size                              : 9.10 KiB (0%)
Title                                    : German [Full]
Language                                 : German
Default                                  : No
Forced                                   : No

Text #6
ID                                       : 8
Format                                   : UTF-8
Codec ID                                 : S_TEXT/UTF8
Codec ID/Info                            : UTF-8 Plain Text
Duration                                 : 24 min 7 s
Bit rate                                 : 54 b/s
Count of elements                        : 331
Stream size                              : 9.55 KiB (0%)
Title                                    : Italian [Full]
Language                                 : Italian
Default                                  : No
Forced                                   : No

Text #7
ID                                       : 9
Format                                   : UTF-8
Codec ID                                 : S_TEXT/UTF8
Codec ID/Info                            : UTF-8 Plain Text
Duration                                 : 24 min 7 s
Bit rate                                 : 55 b/s
Count of elements                        : 330
Stream size                              : 9.78 KiB (0%)
Title                                    : Brazilian Portuguese [Full]
Language                                 : Portuguese
Default                                  : No
Forced                                   : No

Text #8
ID                                       : 10
Format                                   : UTF-8
Codec ID                                 : S_TEXT/UTF8
Codec ID/Info                            : UTF-8 Plain Text
Duration                                 : 24 min 7 s
Bit rate                                 : 54 b/s
Count of elements                        : 332
Stream size                              : 9.59 KiB (0%)
Title                                    : Korean [Full]
Language                                 : Korean
Default                                  : No
Forced                                   : No

Other Files in this Torrent
[DragsterPS] Welcome to the Ballroom S01E03 [1080p] [Japanese] [Multi-Subs] [A157D72F].mkv
beta
Anime DDL+NZB mirror
Current Time: 22/01/2020 00:25



About/FAQs