[DragsterPS] Vinland Saga S01E06 [720p] [Japanese Audio] [Multi-Subs] [FC92A4FE].mkv


File Size326.2 MB (342,071,227 bytes)
DownloadClickNUpload | Jheberg | MultiUp
  • BdUpload
  • DownAce
  • Fichier
  • FileCloud
  • Filerio
  • FilesCdn
  • IndiShare
  • Kbagi
  • Turbobit
  • UpToBox
  • Uppit
| OpenLoad | SolidFiles | ZippyShare
Sendspace: Part1, Part2
HashesCRC32: FC92A4FE, MD5: D3B0D40B0DB001DADA7B45DBBECB1583, SHA1: 3AC5BBF2D64572089B2FB9583AD571B2616CD86D, SHA256: 7471D83320E04215C38102847554816148408C67CC7FA27BB8E35D3C19289942, ED2K: 85D0D88582250DD0559749AC103A457B
Screenshots
screenshotscreenshotscreenshotscreenshotscreenshot
SubtitlesAll Attachments | English [Full] [eng, SRT], Castilian [Full] [spa, SRT], Spanish [Full] [spa, SRT], French [Full] [fre, SRT], German [Full] [ger, SRT], Italian [Full] [ita, SRT], Brazilian Portuguese [Full] [por, SRT], Korean [Full] [kor, SRT], Chinese (Traditional) [Full] [chi, SRT]
Additional Info
General
Unique ID                                : 75768563727458174030092097364112563357 (0x39007E9C4F35F75A8827778F2125DC9D)
Complete name                            : [DragsterPS] Vinland Saga S01E06 [720p] [Japanese Audio] [Multi-Subs] [FC92A4FE].mkv
Format                                   : Matroska
Format version                           : Version 4
File size                                : 326 MiB
Duration                                 : 24 min 44 s
Overall bit rate                         : 1 844 kb/s
Encoded date                             : UTC 2019-08-25 10:01:30
Writing application                      : mkvmerge v32.0.0 ('Astral Progressions') 32-bit
Writing library                          : libebml v1.3.7 + libmatroska v1.5.0

Video
ID                                       : 1
Format                                   : AVC
Format/Info                              : Advanced Video Codec
Format profile                           : High@L3.1
Format settings                          : CABAC / 5 Ref Frames
Format settings, CABAC                   : Yes
Format settings, ReFrames                : 5 frames
Codec ID                                 : V_MPEG4/ISO/AVC
Duration                                 : 24 min 44 s
Bit rate                                 : 1 618 kb/s
Width                                    : 1 280 pixels
Height                                   : 720 pixels
Display aspect ratio                     : 16:9
Frame rate mode                          : Constant
Frame rate                               : 23.976 (24000/1001) FPS
Color space                              : YUV
Chroma subsampling                       : 4:2:0
Bit depth                                : 8 bits
Scan type                                : Progressive
Bits/(Pixel*Frame)                       : 0.073
Stream size                              : 286 MiB (88%)
Default                                  : Yes
Forced                                   : No
Color range                              : Limited
Color primaries                          : BT.709
Transfer characteristics                 : BT.709
Matrix coefficients                      : BT.709

Audio
ID                                       : 2
Format                                   : E-AC-3
Format/Info                              : Enhanced AC-3
Commercial name                          : Dolby Digital Plus
Codec ID                                 : A_EAC3
Duration                                 : 24 min 44 s
Bit rate mode                            : Constant
Bit rate                                 : 224 kb/s
Channel(s)                               : 2 channels
Channel layout                           : L R
Sampling rate                            : 48.0 kHz
Frame rate                               : 31.250 FPS (1536 SPF)
Compression mode                         : Lossy
Stream size                              : 39.6 MiB (12%)
Title                                    : Japanese
Language                                 : Japanese
Service kind                             : Complete Main
Default                                  : No
Forced                                   : No

Text #1
ID                                       : 3
Format                                   : UTF-8
Codec ID                                 : S_TEXT/UTF8
Codec ID/Info                            : UTF-8 Plain Text
Duration                                 : 21 min 56 s
Bit rate                                 : 37 b/s
Count of elements                        : 222
Stream size                              : 6.03 KiB (0%)
Title                                    : English [Full]
Language                                 : English
Default                                  : No
Forced                                   : No

Text #2
ID                                       : 4
Format                                   : UTF-8
Codec ID                                 : S_TEXT/UTF8
Codec ID/Info                            : UTF-8 Plain Text
Duration                                 : 21 min 56 s
Bit rate                                 : 37 b/s
Count of elements                        : 222
Stream size                              : 6.02 KiB (0%)
Title                                    : Castilian [Full]
Language                                 : Spanish
Default                                  : No
Forced                                   : No

Text #3
ID                                       : 5
Format                                   : UTF-8
Codec ID                                 : S_TEXT/UTF8
Codec ID/Info                            : UTF-8 Plain Text
Duration                                 : 21 min 56 s
Bit rate                                 : 38 b/s
Count of elements                        : 222
Stream size                              : 6.20 KiB (0%)
Title                                    : Spanish [Full]
Language                                 : Spanish
Default                                  : No
Forced                                   : No

Text #4
ID                                       : 6
Format                                   : UTF-8
Codec ID                                 : S_TEXT/UTF8
Codec ID/Info                            : UTF-8 Plain Text
Duration                                 : 21 min 56 s
Bit rate                                 : 41 b/s
Count of elements                        : 222
Stream size                              : 6.62 KiB (0%)
Title                                    : French [Full]
Language                                 : French
Default                                  : No
Forced                                   : No

Text #5
ID                                       : 7
Format                                   : UTF-8
Codec ID                                 : S_TEXT/UTF8
Codec ID/Info                            : UTF-8 Plain Text
Duration                                 : 21 min 56 s
Bit rate                                 : 40 b/s
Count of elements                        : 193
Stream size                              : 6.45 KiB (0%)
Title                                    : German [Full]
Language                                 : German
Default                                  : No
Forced                                   : No

Text #6
ID                                       : 8
Format                                   : UTF-8
Codec ID                                 : S_TEXT/UTF8
Codec ID/Info                            : UTF-8 Plain Text
Duration                                 : 21 min 56 s
Bit rate                                 : 39 b/s
Count of elements                        : 222
Stream size                              : 6.28 KiB (0%)
Title                                    : Italian [Full]
Language                                 : Italian
Default                                  : No
Forced                                   : No

Text #7
ID                                       : 9
Format                                   : UTF-8
Codec ID                                 : S_TEXT/UTF8
Codec ID/Info                            : UTF-8 Plain Text
Duration                                 : 21 min 57 s
Bit rate                                 : 35 b/s
Count of elements                        : 221
Stream size                              : 5.76 KiB (0%)
Title                                    : Brazilian Portuguese [Full]
Language                                 : Portuguese
Default                                  : No
Forced                                   : No

Text #8
ID                                       : 10
Format                                   : UTF-8
Codec ID                                 : S_TEXT/UTF8
Codec ID/Info                            : UTF-8 Plain Text
Duration                                 : 21 min 56 s
Bit rate                                 : 41 b/s
Count of elements                        : 224
Stream size                              : 6.66 KiB (0%)
Title                                    : Korean [Full]
Language                                 : Korean
Default                                  : No
Forced                                   : No

Text #9
ID                                       : 11
Format                                   : UTF-8
Codec ID                                 : S_TEXT/UTF8
Codec ID/Info                            : UTF-8 Plain Text
Duration                                 : 21 min 56 s
Bit rate                                 : 30 b/s
Count of elements                        : 224
Stream size                              : 4.95 KiB (0%)
Title                                    : Chinese (Traditional) [Full]
Language                                 : Chinese
Default                                  : No
Forced                                   : No

Other Files in this Torrent
[DragsterPS] Vinland Saga S01E06 [720p] [Japanese Audio] [Multi-Subs] [FC92A4FE].mkv
beta
Anime DDL+NZB mirror
Current Time: 31/03/2020 09:17



About/FAQs