[DragsterPS] Revisions S01E10 [720p] [Multi-Audio] [Multi-Subs] [29FC352A].mkv


File Size1.075 GB (1,153,851,064 bytes)
DownloadJheberg
ClickNUpload: Part1, Part2
MultiUp: Part1
  • BdUpload
  • DownAce
  • Fichier
  • FileCloud
  • Filerio
  • FilesCdn
  • IndiShare
  • Kbagi
  • Solidfiles
  • Turbobit
  • UpToBox
  • Uppit
, Part2
  • BdUpload
  • DownAce
  • Fichier
  • FileCloud
  • Filerio
  • FilesCdn
  • IndiShare
  • Kbagi
  • Solidfiles
  • Turbobit
  • UpToBox
  • Uppit
, Part3
  • BdUpload
  • DownAce
  • Fichier
  • FileCloud
  • Filerio
  • FilesCdn
  • IndiShare
  • Kbagi
  • Solidfiles
  • Turbobit
  • UpToBox
  • Uppit

OpenLoad: Part1, Part2
Sendspace: Part1, Part2, Part3, Part4
ZippyShare: Part1, Part2, Part3
HashesCRC32: 29FC352A, MD5: 7C18B24253D2134DA9013CEE14C45382, SHA1: 4906DABC2DA5E5D7CEFF1E98356DF729C954B588, SHA256: CD235C73424F61F2E96DB491895FBE85A60BA2A788E4FD1C5E0A81D31F424032, ED2K: 7B8D7CE5C34DD89FC31CDFC369227C90
Screenshots
screenshotscreenshotscreenshotscreenshotscreenshot
SubtitlesAll Attachments | English [Forced] [eng, SRT], English [Full] [eng, SRT], Castilian [Forced] [spa, SRT], Castilian [Full] [spa, SRT], Spanish [Forced] [spa, SRT], Spanish [Full] [spa, SRT], French [Forced] [fre, SRT], French [Full] [fre, SRT], German [Forced] [ger, SRT], German [Full] [ger, SRT], Italian [Forced] [ita, SRT], Italian [Full] [ita, SRT], Portuguese [Full] [por, SRT], Brazilian Portuguese [Forced] [por, SRT], Brazilian Portuguese [Full] [por, SRT], Polish [Full] [pol, SRT], Turkish [Full] [tur, SRT], Swedish [Full] [swe, SRT], Danish [Full] [dan, SRT], Finnish [Full] [fin, SRT], Dutch [Full] [dut, SRT], Norwegian [Full] [nor, SRT], Russian [Full] [rus, SRT], Greek [Full] [gre, SRT], Hebrew [Full] [heb, SRT], Arabic [Full] [ara, SRT], Romanian [Full] [rum, SRT], Indonesian [Full] [ind, SRT], Thai [Full] [tha, SRT], Korean [Full] [kor, SRT], Chinese (Simplified) [Full] [chi, SRT], Chinese (Traditional) [Full] [chi, SRT], Japanese [SDH] [jpn, SRT]
Additional Info
General
Unique ID                                : 193998620002162360035735383806833773337 (0x91F2C66FC8D6B5427D04AAB6B992CB19)
Complete name                            : [DragsterPS] Revisions S01E10 [720p] [Multi-Audio] [Multi-Subs] [29FC352A].mkv
Format                                   : Matroska
Format version                           : Version 4
File size                                : 1.07 GiB
Duration                                 : 23 min 22 s
Overall bit rate mode                    : Variable
Overall bit rate                         : 6 584 kb/s
Encoded date                             : UTC 2019-05-14 21:18:00
Writing application                      : mkvmerge v32.0.0 ('Astral Progressions') 32-bit
Writing library                          : libebml v1.3.7 + libmatroska v1.5.0

Video
ID                                       : 1
Format                                   : AVC
Format/Info                              : Advanced Video Codec
Format profile                           : Main@L3.1
Format settings                          : CABAC / 3 Ref Frames
Format settings, CABAC                   : Yes
Format settings, ReFrames                : 3 frames
Codec ID                                 : V_MPEG4/ISO/AVC
Duration                                 : 23 min 21 s
Bit rate mode                            : Variable
Bit rate                                 : 3 160 kb/s
Maximum bit rate                         : 4 740 kb/s
Width                                    : 1 280 pixels
Height                                   : 720 pixels
Display aspect ratio                     : 16:9
Frame rate mode                          : Constant
Frame rate                               : 23.976 (24000/1001) FPS
Color space                              : YUV
Chroma subsampling                       : 4:2:0
Bit depth                                : 8 bits
Scan type                                : Progressive
Bits/(Pixel*Frame)                       : 0.143
Stream size                              : 521 MiB (47%)
Writing library                          : x264 core 148 r2715 7e75228
Encoding settings                        : cabac=1 / ref=3 / deblock=1:0:0 / analyse=0x1:0x111 / me=umh / subme=10 / psy=1 / psy_rd=1.00:0.00 / mixed_ref=1 / me_range=24 / chroma_me=1 / trellis=2 / 8x8dct=0 / cqm=0 / deadzone=21,11 / fast_pskip=1 / chroma_qp_offset=-2 / threads=8 / lookahead_threads=1 / sliced_threads=0 / nr=0 / decimate=1 / interlaced=0 / bluray_compat=0 / stitchable=1 / constrained_intra=0 / bframes=2 / b_pyramid=0 / b_adapt=2 / b_bias=0 / direct=3 / weightb=1 / open_gop=0 / weightp=2 / keyint=48 / keyint_min=25 / scenecut=0 / intra_refresh=0 / rc_lookahead=48 / rc=2pass / mbtree=1 / bitrate=3160 / ratetol=1.0 / qcomp=0.50 / qpmin=6 / qpmax=51 / qpstep=4 / cplxblur=20.0 / qblur=0.5 / vbv_maxrate=4740 / vbv_bufsize=6320 / nal_hrd=vbr / filler=0 / ip_ratio=1.40 / aq=1:1.00
Default                                  : Yes
Forced                                   : No

Audio #1
ID                                       : 2
Format                                   : AC-3
Format/Info                              : Audio Coding 3
Commercial name                          : Dolby Digital
Codec ID                                 : A_AC3
Duration                                 : 23 min 22 s
Bit rate mode                            : Constant
Bit rate                                 : 384 kb/s
Channel(s)                               : 6 channels
Channel layout                           : L R C LFE Ls Rs
Sampling rate                            : 48.0 kHz
Frame rate                               : 31.250 FPS (1536 SPF)
Bit depth                                : 16 bits
Compression mode                         : Lossy
Stream size                              : 64.2 MiB (6%)
Title                                    : English
Language                                 : English
Service kind                             : Complete Main
Default                                  : Yes
Forced                                   : No

Audio #2
ID                                       : 3
Format                                   : AC-3
Format/Info                              : Audio Coding 3
Commercial name                          : Dolby Digital
Codec ID                                 : A_AC3
Duration                                 : 23 min 22 s
Bit rate mode                            : Constant
Bit rate                                 : 384 kb/s
Channel(s)                               : 6 channels
Channel layout                           : L R C LFE Ls Rs
Sampling rate                            : 48.0 kHz
Frame rate                               : 31.250 FPS (1536 SPF)
Bit depth                                : 16 bits
Compression mode                         : Lossy
Stream size                              : 64.2 MiB (6%)
Title                                    : Castilian
Language                                 : Spanish
Service kind                             : Complete Main
Default                                  : No
Forced                                   : No

Audio #3
ID                                       : 4
Format                                   : AC-3
Format/Info                              : Audio Coding 3
Commercial name                          : Dolby Digital
Codec ID                                 : A_AC3
Duration                                 : 23 min 22 s
Bit rate mode                            : Constant
Bit rate                                 : 384 kb/s
Channel(s)                               : 6 channels
Channel layout                           : L R C LFE Ls Rs
Sampling rate                            : 48.0 kHz
Frame rate                               : 31.250 FPS (1536 SPF)
Bit depth                                : 16 bits
Compression mode                         : Lossy
Stream size                              : 64.2 MiB (6%)
Title                                    : Spanish
Language                                 : Spanish
Service kind                             : Complete Main
Default                                  : No
Forced                                   : No

Audio #4
ID                                       : 5
Format                                   : AC-3
Format/Info                              : Audio Coding 3
Commercial name                          : Dolby Digital
Codec ID                                 : A_AC3
Duration                                 : 23 min 22 s
Bit rate mode                            : Constant
Bit rate                                 : 384 kb/s
Channel(s)                               : 6 channels
Channel layout                           : L R C LFE Ls Rs
Sampling rate                            : 48.0 kHz
Frame rate                               : 31.250 FPS (1536 SPF)
Bit depth                                : 16 bits
Compression mode                         : Lossy
Stream size                              : 64.2 MiB (6%)
Title                                    : French
Language                                 : French
Service kind                             : Complete Main
Default                                  : No
Forced                                   : No

Audio #5
ID                                       : 6
Format                                   : AC-3
Format/Info                              : Audio Coding 3
Commercial name                          : Dolby Digital
Codec ID                                 : A_AC3
Duration                                 : 23 min 22 s
Bit rate mode                            : Constant
Bit rate                                 : 384 kb/s
Channel(s)                               : 6 channels
Channel layout                           : L R C LFE Ls Rs
Sampling rate                            : 48.0 kHz
Frame rate                               : 31.250 FPS (1536 SPF)
Bit depth                                : 16 bits
Compression mode                         : Lossy
Stream size                              : 64.2 MiB (6%)
Title                                    : German
Language                                 : German
Service kind                             : Complete Main
Default                                  : No
Forced                                   : No

Audio #6
ID                                       : 7
Format                                   : AC-3
Format/Info                              : Audio Coding 3
Commercial name                          : Dolby Digital
Codec ID                                 : A_AC3
Duration                                 : 23 min 22 s
Bit rate mode                            : Constant
Bit rate                                 : 384 kb/s
Channel(s)                               : 6 channels
Channel layout                           : L R C LFE Ls Rs
Sampling rate                            : 48.0 kHz
Frame rate                               : 31.250 FPS (1536 SPF)
Bit depth                                : 16 bits
Compression mode                         : Lossy
Stream size                              : 64.2 MiB (6%)
Title                                    : Italian
Language                                 : Italian
Service kind                             : Complete Main
Default                                  : No
Forced                                   : No

Audio #7
ID                                       : 8
Format                                   : AC-3
Format/Info                              : Audio Coding 3
Commercial name                          : Dolby Digital
Codec ID                                 : A_AC3
Duration                                 : 23 min 22 s
Bit rate mode                            : Constant
Bit rate                                 : 384 kb/s
Channel(s)                               : 6 channels
Channel layout                           : L R C LFE Ls Rs
Sampling rate                            : 48.0 kHz
Frame rate                               : 31.250 FPS (1536 SPF)
Bit depth                                : 16 bits
Compression mode                         : Lossy
Stream size                              : 64.2 MiB (6%)
Title                                    : Brazilian Portuguese
Language                                 : Portuguese
Service kind                             : Complete Main
Default                                  : No
Forced                                   : No

Audio #8
ID                                       : 9
Format                                   : AC-3
Format/Info                              : Audio Coding 3
Commercial name                          : Dolby Digital
Codec ID                                 : A_AC3
Duration                                 : 23 min 22 s
Bit rate mode                            : Constant
Bit rate                                 : 384 kb/s
Channel(s)                               : 6 channels
Channel layout                           : L R C LFE Ls Rs
Sampling rate                            : 48.0 kHz
Frame rate                               : 31.250 FPS (1536 SPF)
Bit depth                                : 16 bits
Compression mode                         : Lossy
Stream size                              : 64.2 MiB (6%)
Title                                    : Japanese
Language                                 : Japanese
Service kind                             : Complete Main
Default                                  : No
Forced                                   : No

Audio #9
ID                                       : 10
Format                                   : AC-3
Format/Info                              : Audio Coding 3
Commercial name                          : Dolby Digital
Codec ID                                 : A_AC3
Duration                                 : 23 min 22 s
Bit rate mode                            : Constant
Bit rate                                 : 384 kb/s
Channel(s)                               : 6 channels
Channel layout                           : L R C LFE Ls Rs
Sampling rate                            : 48.0 kHz
Frame rate                               : 31.250 FPS (1536 SPF)
Bit depth                                : 16 bits
Compression mode                         : Lossy
Stream size                              : 64.2 MiB (6%)
Title                                    : Japanese (Audio Description)
Language                                 : Japanese
Service kind                             : Complete Main
Default                                  : No
Forced                                   : No

Text #1
ID                                       : 11
Format                                   : UTF-8
Codec ID                                 : S_TEXT/UTF8
Codec ID/Info                            : UTF-8 Plain Text
Duration                                 : 19 min 35 s
Bit rate                                 : 1 b/s
Count of elements                        : 11
Stream size                              : 174 Bytes (0%)
Title                                    : English [Forced]
Language                                 : English
Default                                  : No
Forced                                   : Yes

Text #2
ID                                       : 12
Format                                   : UTF-8
Codec ID                                 : S_TEXT/UTF8
Codec ID/Info                            : UTF-8 Plain Text
Duration                                 : 22 min 46 s
Bit rate                                 : 68 b/s
Count of elements                        : 351
Stream size                              : 11.4 KiB (0%)
Title                                    : English [Full]
Language                                 : English
Default                                  : No
Forced                                   : No

Text #3
ID                                       : 13
Format                                   : UTF-8
Codec ID                                 : S_TEXT/UTF8
Codec ID/Info                            : UTF-8 Plain Text
Duration                                 : 22 min 56 s
Bit rate                                 : 2 b/s
Count of elements                        : 18
Stream size                              : 360 Bytes (0%)
Title                                    : Castilian [Forced]
Language                                 : Spanish
Default                                  : No
Forced                                   : Yes

Text #4
ID                                       : 14
Format                                   : UTF-8
Codec ID                                 : S_TEXT/UTF8
Codec ID/Info                            : UTF-8 Plain Text
Duration                                 : 22 min 56 s
Bit rate                                 : 65 b/s
Count of elements                        : 362
Stream size                              : 10.9 KiB (0%)
Title                                    : Castilian [Full]
Language                                 : Spanish
Default                                  : No
Forced                                   : No

Text #5
ID                                       : 15
Format                                   : UTF-8
Codec ID                                 : S_TEXT/UTF8
Codec ID/Info                            : UTF-8 Plain Text
Duration                                 : 22 min 56 s
Bit rate                                 : 2 b/s
Count of elements                        : 19
Stream size                              : 356 Bytes (0%)
Title                                    : Spanish [Forced]
Language                                 : Spanish
Default                                  : No
Forced                                   : Yes

Text #6
ID                                       : 16
Format                                   : UTF-8
Codec ID                                 : S_TEXT/UTF8
Codec ID/Info                            : UTF-8 Plain Text
Duration                                 : 22 min 56 s
Bit rate                                 : 65 b/s
Count of elements                        : 362
Stream size                              : 11.0 KiB (0%)
Title                                    : Spanish [Full]
Language                                 : Spanish
Default                                  : No
Forced                                   : No

Text #7
ID                                       : 17
Format                                   : UTF-8
Codec ID                                 : S_TEXT/UTF8
Codec ID/Info                            : UTF-8 Plain Text
Duration                                 : 22 min 56 s
Bit rate                                 : 2 b/s
Count of elements                        : 19
Stream size                              : 370 Bytes (0%)
Title                                    : French [Forced]
Language                                 : French
Default                                  : No
Forced                                   : Yes

Text #8
ID                                       : 18
Format                                   : UTF-8
Codec ID                                 : S_TEXT/UTF8
Codec ID/Info                            : UTF-8 Plain Text
Duration                                 : 22 min 56 s
Bit rate                                 : 71 b/s
Count of elements                        : 361
Stream size                              : 12.1 KiB (0%)
Title                                    : French [Full]
Language                                 : French
Default                                  : No
Forced                                   : No

Text #9
ID                                       : 19
Format                                   : UTF-8
Codec ID                                 : S_TEXT/UTF8
Codec ID/Info                            : UTF-8 Plain Text
Duration                                 : 22 min 56 s
Bit rate                                 : 2 b/s
Count of elements                        : 20
Stream size                              : 402 Bytes (0%)
Title                                    : German [Forced]
Language                                 : German
Default                                  : No
Forced                                   : Yes

Text #10
ID                                       : 20
Format                                   : UTF-8
Codec ID                                 : S_TEXT/UTF8
Codec ID/Info                            : UTF-8 Plain Text
Duration                                 : 22 min 56 s
Bit rate                                 : 69 b/s
Count of elements                        : 362
Stream size                              : 11.6 KiB (0%)
Title                                    : German [Full]
Language                                 : German
Default                                  : No
Forced                                   : No

Text #11
ID                                       : 21
Format                                   : UTF-8
Codec ID                                 : S_TEXT/UTF8
Codec ID/Info                            : UTF-8 Plain Text
Duration                                 : 22 min 56 s
Bit rate                                 : 2 b/s
Count of elements                        : 19
Stream size                              : 427 Bytes (0%)
Title                                    : Italian [Forced]
Language                                 : Italian
Default                                  : No
Forced                                   : Yes

Text #12
ID                                       : 22
Format                                   : UTF-8
Codec ID                                 : S_TEXT/UTF8
Codec ID/Info                            : UTF-8 Plain Text
Duration                                 : 22 min 56 s
Bit rate                                 : 66 b/s
Count of elements                        : 362
Stream size                              : 11.2 KiB (0%)
Title                                    : Italian [Full]
Language                                 : Italian
Default                                  : No
Forced                                   : No

Text #13
ID                                       : 23
Format                                   : UTF-8
Codec ID                                 : S_TEXT/UTF8
Codec ID/Info                            : UTF-8 Plain Text
Duration                                 : 22 min 56 s
Bit rate                                 : 67 b/s
Count of elements                        : 361
Stream size                              : 11.3 KiB (0%)
Title                                    : Portuguese [Full]
Language                                 : Portuguese
Default                                  : No
Forced                                   : No

Text #14
ID                                       : 24
Format                                   : UTF-8
Codec ID                                 : S_TEXT/UTF8
Codec ID/Info                            : UTF-8 Plain Text
Duration                                 : 22 min 56 s
Bit rate                                 : 2 b/s
Count of elements                        : 20
Stream size                              : 423 Bytes (0%)
Title                                    : Brazilian Portuguese [Forced]
Language                                 : Portuguese
Default                                  : No
Forced                                   : Yes

Text #15
ID                                       : 25
Format                                   : UTF-8
Codec ID                                 : S_TEXT/UTF8
Codec ID/Info                            : UTF-8 Plain Text
Duration                                 : 22 min 56 s
Bit rate                                 : 65 b/s
Count of elements                        : 362
Stream size                              : 11.0 KiB (0%)
Title                                    : Brazilian Portuguese [Full]
Language                                 : Portuguese
Default                                  : No
Forced                                   : No

Text #16
ID                                       : 26
Format                                   : UTF-8
Codec ID                                 : S_TEXT/UTF8
Codec ID/Info                            : UTF-8 Plain Text
Duration                                 : 22 min 56 s
Bit rate                                 : 54 b/s
Count of elements                        : 362
Stream size                              : 9.09 KiB (0%)
Title                                    : Polish [Full]
Language                                 : Polish
Default                                  : No
Forced                                   : No

Text #17
ID                                       : 27
Format                                   : UTF-8
Codec ID                                 : S_TEXT/UTF8
Codec ID/Info                            : UTF-8 Plain Text
Duration                                 : 22 min 56 s
Bit rate                                 : 67 b/s
Count of elements                        : 362
Stream size                              : 11.4 KiB (0%)
Title                                    : Turkish [Full]
Language                                 : Turkish
Default                                  : No
Forced                                   : No

Text #18
ID                                       : 28
Format                                   : UTF-8
Codec ID                                 : S_TEXT/UTF8
Codec ID/Info                            : UTF-8 Plain Text
Duration                                 : 22 min 56 s
Bit rate                                 : 64 b/s
Count of elements                        : 362
Stream size                              : 10.9 KiB (0%)
Title                                    : Swedish [Full]
Language                                 : Swedish
Default                                  : No
Forced                                   : No

Text #19
ID                                       : 29
Format                                   : UTF-8
Codec ID                                 : S_TEXT/UTF8
Codec ID/Info                            : UTF-8 Plain Text
Duration                                 : 22 min 56 s
Bit rate                                 : 66 b/s
Count of elements                        : 362
Stream size                              : 11.2 KiB (0%)
Title                                    : Danish [Full]
Language                                 : Danish
Default                                  : No
Forced                                   : No

Text #20
ID                                       : 30
Format                                   : UTF-8
Codec ID                                 : S_TEXT/UTF8
Codec ID/Info                            : UTF-8 Plain Text
Duration                                 : 22 min 56 s
Bit rate                                 : 67 b/s
Count of elements                        : 362
Stream size                              : 11.3 KiB (0%)
Title                                    : Finnish [Full]
Language                                 : Finnish
Default                                  : No
Forced                                   : No

Text #21
ID                                       : 31
Format                                   : UTF-8
Codec ID                                 : S_TEXT/UTF8
Codec ID/Info                            : UTF-8 Plain Text
Duration                                 : 22 min 56 s
Bit rate                                 : 60 b/s
Count of elements                        : 361
Stream size                              : 10.1 KiB (0%)
Title                                    : Dutch [Full]
Language                                 : Dutch
Default                                  : No
Forced                                   : No

Text #22
ID                                       : 32
Format                                   : UTF-8
Codec ID                                 : S_TEXT/UTF8
Codec ID/Info                            : UTF-8 Plain Text
Duration                                 : 22 min 56 s
Bit rate                                 : 61 b/s
Count of elements                        : 362
Stream size                              : 10.3 KiB (0%)
Title                                    : Norwegian [Full]
Language                                 : Norwegian
Default                                  : No
Forced                                   : No

Text #23
ID                                       : 33
Format                                   : UTF-8
Codec ID                                 : S_TEXT/UTF8
Codec ID/Info                            : UTF-8 Plain Text
Duration                                 : 22 min 56 s
Bit rate                                 : 96 b/s
Count of elements                        : 362
Stream size                              : 16.3 KiB (0%)
Title                                    : Russian [Full]
Language                                 : Russian
Default                                  : No
Forced                                   : No

Text #24
ID                                       : 34
Format                                   : UTF-8
Codec ID                                 : S_TEXT/UTF8
Codec ID/Info                            : UTF-8 Plain Text
Duration                                 : 22 min 56 s
Bit rate                                 : 118 b/s
Count of elements                        : 362
Stream size                              : 20.0 KiB (0%)
Title                                    : Greek [Full]
Language                                 : Greek
Default                                  : No
Forced                                   : No

Text #25
ID                                       : 35
Format                                   : UTF-8
Codec ID                                 : S_TEXT/UTF8
Codec ID/Info                            : UTF-8 Plain Text
Duration                                 : 22 min 56 s
Bit rate                                 : 94 b/s
Count of elements                        : 362
Stream size                              : 15.9 KiB (0%)
Title                                    : Hebrew [Full]
Language                                 : Hebrew
Default                                  : No
Forced                                   : No

Text #26
ID                                       : 36
Format                                   : UTF-8
Codec ID                                 : S_TEXT/UTF8
Codec ID/Info                            : UTF-8 Plain Text
Duration                                 : 22 min 56 s
Bit rate                                 : 102 b/s
Count of elements                        : 362
Stream size                              : 17.2 KiB (0%)
Title                                    : Arabic [Full]
Language                                 : Arabic
Default                                  : No
Forced                                   : No

Text #27
ID                                       : 37
Format                                   : UTF-8
Codec ID                                 : S_TEXT/UTF8
Codec ID/Info                            : UTF-8 Plain Text
Duration                                 : 22 min 56 s
Bit rate                                 : 72 b/s
Count of elements                        : 362
Stream size                              : 12.2 KiB (0%)
Title                                    : Romanian [Full]
Language                                 : Romanian
Default                                  : No
Forced                                   : No

Text #28
ID                                       : 38
Format                                   : UTF-8
Codec ID                                 : S_TEXT/UTF8
Codec ID/Info                            : UTF-8 Plain Text
Duration                                 : 22 min 56 s
Bit rate                                 : 65 b/s
Count of elements                        : 362
Stream size                              : 11.0 KiB (0%)
Title                                    : Indonesian [Full]
Language                                 : Indonesian
Default                                  : No
Forced                                   : No

Text #29
ID                                       : 39
Format                                   : UTF-8
Codec ID                                 : S_TEXT/UTF8
Codec ID/Info                            : UTF-8 Plain Text
Duration                                 : 22 min 56 s
Bit rate                                 : 170 b/s
Count of elements                        : 361
Stream size                              : 28.6 KiB (0%)
Title                                    : Thai [Full]
Language                                 : Thai
Default                                  : No
Forced                                   : No

Text #30
ID                                       : 40
Format                                   : UTF-8
Codec ID                                 : S_TEXT/UTF8
Codec ID/Info                            : UTF-8 Plain Text
Duration                                 : 22 min 56 s
Bit rate                                 : 75 b/s
Count of elements                        : 357
Stream size                              : 12.7 KiB (0%)
Title                                    : Korean [Full]
Language                                 : Korean
Default                                  : No
Forced                                   : No

Text #31
ID                                       : 41
Format                                   : UTF-8
Codec ID                                 : S_TEXT/UTF8
Codec ID/Info                            : UTF-8 Plain Text
Duration                                 : 22 min 56 s
Bit rate                                 : 63 b/s
Count of elements                        : 347
Stream size                              : 10.7 KiB (0%)
Title                                    : Chinese (Simplified) [Full]
Language                                 : Chinese
Default                                  : No
Forced                                   : No

Text #32
ID                                       : 42
Format                                   : UTF-8
Codec ID                                 : S_TEXT/UTF8
Codec ID/Info                            : UTF-8 Plain Text
Duration                                 : 22 min 56 s
Bit rate                                 : 65 b/s
Count of elements                        : 354
Stream size                              : 11.0 KiB (0%)
Title                                    : Chinese (Traditional) [Full]
Language                                 : Chinese
Default                                  : No
Forced                                   : No

Text #33
ID                                       : 43
Format                                   : UTF-8
Codec ID                                 : S_TEXT/UTF8
Codec ID/Info                            : UTF-8 Plain Text
Duration                                 : 22 min 44 s
Bit rate                                 : 119 b/s
Count of elements                        : 474
Stream size                              : 19.8 KiB (0%)
Title                                    : Japanese [SDH]
Language                                 : Japanese
Default                                  : No
Forced                                   : No

Other Files in this Torrent
[DragsterPS] Revisions S01E10 [720p] [Multi-Audio] [Multi-Subs] [29FC352A].mkv
beta
Anime DDL+NZB mirror
Current Time: 23/09/2019 08:24



About/FAQs