File Size16.33 MB (17,118,639 bytes)
DownloadClickNUpload | Jheberg | MultiUp
  • BdUpload
  • DownAce
  • Fichier
  • FileCloud
  • Filerio
  • FilesCdn
  • IndiShare
  • Kbagi
  • Turbobit
  • UpToBox
  • Uppit
| OpenLoad | Sendspace | SolidFiles | ZippyShare
HashesCRC32: AD42A5EF, MD5: 2C0089095AA3C6F7F2FCA8EDEB9EB21B, SHA1: 0409D35A9908D43A664E883C5DA0D4E477A5BD05, SHA256: 22924185F1260A80A9E218BFB6143020D004AC75001BD9CCAED168410CB981A4, ED2K: A48C7F99D4BC5BA6FD659FD5ECB23966
Screenshots
screenshot
Additional Info
General
Complete name                            : Dragon Ball Super - 129 - Sneak Peek [KaiDubs] [1080p AS-DL] [AD42A5EF].mp4
Format                                   : MPEG-4
Format profile                           : Base Media
Codec ID                                 : isom (isom/iso2/avc1/mp41)
File size                                : 16.3 MiB
Duration                                 : 14 s 982 ms
Overall bit rate mode                    : Variable
Overall bit rate                         : 9 141 kb/s
Writing application                      : Lavf58.32.104

Video
ID                                       : 1
Format                                   : AVC
Format/Info                              : Advanced Video Codec
Format profile                           : High@L4
Format settings                          : CABAC / 2 Ref Frames
Format settings, CABAC                   : Yes
Format settings, ReFrames                : 2 frames
Codec ID                                 : avc1
Codec ID/Info                            : Advanced Video Coding
Duration                                 : 14 s 982 ms
Bit rate mode                            : Constant
Bit rate                                 : 9 006 kb/s
Nominal bit rate                         : 8 500 kb/s
Width                                    : 1 920 pixels
Height                                   : 1 080 pixels
Display aspect ratio                     : 16:9
Frame rate mode                          : Constant
Frame rate                               : 29.970 (30000/1001) FPS
Color space                              : YUV
Chroma subsampling                       : 4:2:0
Bit depth                                : 8 bits
Scan type                                : Progressive
Bits/(Pixel*Frame)                       : 0.145
Stream size                              : 16.1 MiB (99%)
Codec configuration box                  : avcC

Audio
ID                                       : 2
Format                                   : AAC LC
Format/Info                              : Advanced Audio Codec Low Complexity
Codec ID                                 : mp4a-40-2
Duration                                 : 14 s 977 ms
Bit rate mode                            : Variable
Bit rate                                 : 126 kb/s
Maximum bit rate                         : 131 kb/s
Channel(s)                               : 2 channels
Channel layout                           : L R
Sampling rate                            : 44.1 kHz
Frame rate                               : 43.066 FPS (1024 SPF)
Compression mode                         : Lossy
Stream size                              : 230 KiB (1%)
Language                                 : English
Default                                  : Yes
Alternate group                          : 1
beta
Anime DDL+NZB mirror
Current Time: 13/07/2020 04:22



About/FAQs