File Size1.978 GB (2,123,465,473 bytes)
DownloadClickNUpload | UploadFiles
Go4Up: Part1
  • DownAce
  • FileFactory
  • KatFile
  • Oboom
  • OwnDrives
  • Share-Online
  • SolidFiles
  • TusFiles
  • Uppit
  • UsersCloud
, Part2
  • DownAce
  • FileFactory
  • KatFile
  • Oboom
  • OwnDrives
  • Share-Online
  • SolidFiles
  • TusFiles
  • Uppit
  • UsersCloud
, Part3
  • DownAce
  • FileFactory
  • KatFile
  • Oboom
  • OwnDrives
  • Share-Online
  • SolidFiles
  • TusFiles
  • Uppit
  • UsersCloud

Jheberg: Part1, Part2
MultiUp: Part1
  • BdUpload
  • DownAce
  • Fichier
  • FileCloud
  • Filerio
  • FilesCdn
  • IndiShare
  • Kbagi
  • Turbobit
  • UpToBox
  • Uppit
, Part2
  • BdUpload
  • DownAce
  • Fichier
  • FileCloud
  • Filerio
  • FilesCdn
  • IndiShare
  • Kbagi
  • Turbobit
  • UpToBox
  • Uppit
, Part3
  • BdUpload
  • DownAce
  • Fichier
  • FileCloud
  • Filerio
  • FilesCdn
  • IndiShare
  • Kbagi
  • Turbobit
  • UpToBox
  • Uppit
, Part4
  • BdUpload
  • DownAce
  • Fichier
  • FileCloud
  • Filerio
  • FilesCdn
  • IndiShare
  • Kbagi
  • Turbobit
  • UpToBox
  • Uppit
, Part5
  • BdUpload
  • DownAce
  • Fichier
  • FileCloud
  • Filerio
  • FilesCdn
  • IndiShare
  • Kbagi
  • Turbobit
  • UpToBox
  • Uppit

Sendspace: Part1, Part2, Part3, Part4, Part5, Part6, Part7
SolidFiles: Part1, Part2, Part3, Part4, Part5
ZippyShare: Part1, Part2, Part3, Part4, Part5
HashesCRC32: D1E7D93B, MD5: 0E462E6C0FAFBA01FAE49A8590C52A27, SHA1: 6F6EA794B9682FCDA30ECBB5FCF69045332B3E5C, SHA256: D0D93788D1F637CD01AFBF81581D40941888376566EC51B85EE0478A1CBAB6F4, ED2K: 3002FF8EFC1C291B31C8E77750CB138F
Screenshots
screenshotscreenshotscreenshotscreenshotscreenshot
SubtitlesAll Attachments | English [CR Coalgirls Styled] [eng, ASS], Galego [danielpc2013] [glg, ASS], Español (España) [CR Coalgirls Styled] [spa, ASS], Español (Latino) [CR Coalgirls Styled] [spa, ASS], Português (Brasil) [CR Coalgirls Styled] [por, ASS], English [CR] [eng, ASS], Español (España) [CR] [spa, ASS], Español (Latino) [CR] [spa, ASS], Português (Brasil) [CR] [por, ASS], English [Signs/Songs] [Coalgirls] [eng, ASS], English [Viz] [eng, PGS], English [Signs/Songs] [Viz] [eng, PGS], Français [Kana] [fre, ASS], Français [Forcés] [fre, ASS], 日本語 [CC] [jpn, ASS]
Additional Info
General
Unique ID                                : 186512880369512651570148713124361674795 (0x8C5112FA4C7B0BBBA30035E4B48C202B)
Complete name                            : [DP] Hunter X Hunter - 005 [D1E7D93B].mkv
Format                                   : Matroska
Format version                           : Version 4
File size                                : 1.98 GiB
Duration                                 : 23 min 36 s
Overall bit rate mode                    : Variable
Overall bit rate                         : 12.0 Mb/s
Encoded date                             : UTC 2020-01-16 15:53:26
Writing application                      : mkvmerge v8.3.0 ('Over the Horizon') 64bit
Writing library                          : libebml v1.3.1 + libmatroska v1.4.2
Attachments                              : AlegreyaSansSC-Black.ttf / AlegreyaSansSC-BlackItalic.ttf / ariblk.ttf / ARLRDBD.TTF / GandhiSans-Bold.otf / GandhiSans-BoldItalic.otf / HunterxHunterOP.ttf / Nicotine Stains.ttf / Prototype.ttf

Video
ID                                       : 1
Format                                   : AVC
Format/Info                              : Advanced Video Codec
Format profile                           : High 10@L4.1
Format settings                          : CABAC / 4 Ref Frames
Format settings, CABAC                   : Yes
Format settings, ReFrames                : 4 frames
Codec ID                                 : V_MPEG4/ISO/AVC
Duration                                 : 23 min 36 s
Bit rate                                 : 9 023 kb/s
Width                                    : 1 920 pixels
Height                                   : 1 080 pixels
Display aspect ratio                     : 16:9
Frame rate mode                          : Constant
Frame rate                               : 23.976 (24000/1001) FPS
Color space                              : YUV
Chroma subsampling                       : 4:2:0
Bit depth                                : 10 bits
Scan type                                : Progressive
Bits/(Pixel*Frame)                       : 0.181
Stream size                              : 1.49 GiB (75%)
Writing library                          : x264 core 142 r2431+42 c69a006 tMod [10-bit@all X86_64]
Encoding settings                        : cabac=1 / ref=4 / deblock=1:-2:-2 / analyse=0x3:0x133 / me=umh / subme=9 / psy=1 / fade_compensate=0.00 / psy_rd=0.70:0.00 / mixed_ref=1 / me_range=32 / chroma_me=1 / trellis=2 / 8x8dct=1 / cqm=0 / deadzone=21,11 / fast_pskip=1 / chroma_qp_offset=-2 / threads=12 / lookahead_threads=2 / sliced_threads=0 / nr=0 / decimate=0 / interlaced=0 / bluray_compat=0 / constrained_intra=0 / fgo=0 / bframes=8 / b_pyramid=2 / b_adapt=2 / b_bias=0 / direct=3 / weightb=1 / open_gop=0 / weightp=2 / keyint=250 / keyint_min=23 / scenecut=40 / intra_refresh=0 / rc=crf / mbtree=0 / crf=17.0000 / qcomp=0.60 / qpmin=10:10:10 / qpmax=38:38:38 / qpstep=4 / ip_ratio=1.40 / pb_ratio=1.30 / aq=1:1.00 / aq-sensitivity=10.00 / aq-factor=1.00:1.00:1.00 / aq2=0 / aq3=0
Language                                 : Japanese
Default                                  : Yes
Forced                                   : No
Color range                              : Limited
Color primaries                          : BT.709
Transfer characteristics                 : BT.709
Matrix coefficients                      : BT.709

Audio #1
ID                                       : 2
Format                                   : FLAC
Format/Info                              : Free Lossless Audio Codec
Codec ID                                 : A_FLAC
Duration                                 : 23 min 35 s
Bit rate mode                            : Variable
Bit rate                                 : 1 405 kb/s
Channel(s)                               : 2 channels
Sampling rate                            : 48.0 kHz
Frame rate                               : 11.719 FPS (4096 SPF)
Bit depth                                : 24 bits
Compression mode                         : Lossless
Stream size                              : 237 MiB (12%)
Title                                    : 日本語 [FLAC 2.0]
Writing library                          : libFLAC 1.2.1 (UTC 2007-09-17)
Language                                 : Japanese
Default                                  : Yes
Forced                                   : No

Audio #2
ID                                       : 3
Format                                   : FLAC
Format/Info                              : Free Lossless Audio Codec
Codec ID                                 : A_FLAC
Duration                                 : 23 min 36 s
Bit rate mode                            : Variable
Bit rate                                 : 1 410 kb/s
Channel(s)                               : 2 channels
Sampling rate                            : 48.0 kHz
Frame rate                               : 11.719 FPS (4096 SPF)
Bit depth                                : 24 bits
Compression mode                         : Lossless
Stream size                              : 238 MiB (12%)
Title                                    : English [FLAC 2.0]
Writing library                          : libFLAC 1.2.1 (UTC 2007-09-17)
Language                                 : English
Default                                  : No
Forced                                   : No

Audio #3
ID                                       : 4
Format                                   : E-AC-3
Format/Info                              : Enhanced AC-3
Commercial name                          : Dolby Digital Plus
Codec ID                                 : A_EAC3
Duration                                 : 23 min 35 s
Bit rate mode                            : Constant
Bit rate                                 : 128 kb/s
Channel(s)                               : 2 channels
Channel layout                           : L R
Sampling rate                            : 48.0 kHz
Frame rate                               : 31.250 FPS (1536 SPF)
Compression mode                         : Lossy
Stream size                              : 21.6 MiB (1%)
Title                                    : Français [EAC3 2.0]
Language                                 : French
Service kind                             : Complete Main
Default                                  : No
Forced                                   : No

Text #1
ID                                       : 5
Format                                   : ASS
Codec ID                                 : S_TEXT/ASS
Codec ID/Info                            : Advanced Sub Station Alpha
Duration                                 : 23 min 29 s
Bit rate                                 : 94 b/s
Count of elements                        : 296
Compression mode                         : Lossless
Stream size                              : 16.3 KiB (0%)
Title                                    : English [CR Coalgirls Styled]
Language                                 : English
Default                                  : Yes
Forced                                   : No

Text #2
ID                                       : 6
Format                                   : ASS
Codec ID                                 : S_TEXT/ASS
Codec ID/Info                            : Advanced Sub Station Alpha
Duration                                 : 23 min 30 s
Bit rate                                 : 96 b/s
Count of elements                        : 304
Compression mode                         : Lossless
Stream size                              : 16.6 KiB (0%)
Title                                    : Galego [danielpc2013]
Language                                 : Galician
Default                                  : No
Forced                                   : No

Text #3
ID                                       : 7
Format                                   : ASS
Codec ID                                 : S_TEXT/ASS
Codec ID/Info                            : Advanced Sub Station Alpha
Duration                                 : 23 min 30 s
Bit rate                                 : 74 b/s
Count of elements                        : 233
Compression mode                         : Lossless
Stream size                              : 12.8 KiB (0%)
Title                                    : Español (España) [CR Coalgirls Styled]
Language                                 : Spanish
Default                                  : No
Forced                                   : No

Text #4
ID                                       : 8
Format                                   : ASS
Codec ID                                 : S_TEXT/ASS
Codec ID/Info                            : Advanced Sub Station Alpha
Duration                                 : 23 min 30 s
Bit rate                                 : 79 b/s
Count of elements                        : 234
Compression mode                         : Lossless
Stream size                              : 13.7 KiB (0%)
Title                                    : Español (Latino) [CR Coalgirls Styled]
Language                                 : Spanish
Default                                  : No
Forced                                   : No

Text #5
ID                                       : 9
Format                                   : ASS
Codec ID                                 : S_TEXT/ASS
Codec ID/Info                            : Advanced Sub Station Alpha
Duration                                 : 23 min 30 s
Bit rate                                 : 76 b/s
Count of elements                        : 242
Compression mode                         : Lossless
Stream size                              : 13.1 KiB (0%)
Title                                    : Português (Brasil) [CR Coalgirls Styled]
Language                                 : Portuguese
Default                                  : No
Forced                                   : No

Text #6
ID                                       : 10
Format                                   : ASS
Codec ID                                 : S_TEXT/ASS
Codec ID/Info                            : Advanced Sub Station Alpha
Duration                                 : 23 min 30 s
Bit rate                                 : 65 b/s
Count of elements                        : 225
Compression mode                         : Lossless
Stream size                              : 11.3 KiB (0%)
Title                                    : English [CR]
Language                                 : English
Default                                  : No
Forced                                   : No

Text #7
ID                                       : 11
Format                                   : ASS
Codec ID                                 : S_TEXT/ASS
Codec ID/Info                            : Advanced Sub Station Alpha
Duration                                 : 23 min 30 s
Bit rate                                 : 68 b/s
Count of elements                        : 214
Compression mode                         : Lossless
Stream size                              : 11.8 KiB (0%)
Title                                    : Español (España) [CR]
Language                                 : Spanish
Default                                  : No
Forced                                   : No

Text #8
ID                                       : 12
Format                                   : ASS
Codec ID                                 : S_TEXT/ASS
Codec ID/Info                            : Advanced Sub Station Alpha
Duration                                 : 23 min 30 s
Bit rate                                 : 72 b/s
Count of elements                        : 215
Compression mode                         : Lossless
Stream size                              : 12.4 KiB (0%)
Title                                    : Español (Latino) [CR]
Language                                 : Spanish
Default                                  : No
Forced                                   : No

Text #9
ID                                       : 13
Format                                   : ASS
Codec ID                                 : S_TEXT/ASS
Codec ID/Info                            : Advanced Sub Station Alpha
Duration                                 : 23 min 30 s
Bit rate                                 : 65 b/s
Count of elements                        : 223
Compression mode                         : Lossless
Stream size                              : 11.2 KiB (0%)
Title                                    : Português (Brasil) [CR]
Language                                 : Portuguese
Default                                  : No
Forced                                   : No

Text #10
ID                                       : 14
Format                                   : ASS
Codec ID                                 : S_TEXT/ASS
Codec ID/Info                            : Advanced Sub Station Alpha
Duration                                 : 22 min 39 s
Bit rate                                 : 33 b/s
Count of elements                        : 84
Compression mode                         : Lossless
Stream size                              : 5.49 KiB (0%)
Title                                    : English [Signs/Songs] [Coalgirls]
Language                                 : English
Default                                  : No
Forced                                   : No

Text #11
ID                                       : 15
Format                                   : PGS
Muxing mode                              : zlib
Codec ID                                 : S_HDMV/PGS
Codec ID/Info                            : Picture based subtitle format used on BDs/HD-DVDs
Duration                                 : 23 min 29 s
Bit rate                                 : 15.1 kb/s
Count of elements                        : 419
Stream size                              : 2.55 MiB (0%)
Title                                    : English [Viz]
Language                                 : English
Default                                  : No
Forced                                   : No

Text #12
ID                                       : 16
Format                                   : PGS
Muxing mode                              : zlib
Codec ID                                 : S_HDMV/PGS
Codec ID/Info                            : Picture based subtitle format used on BDs/HD-DVDs
Duration                                 : 22 min 39 s
Bit rate                                 : 3 318 b/s
Count of elements                        : 51
Stream size                              : 551 KiB (0%)
Title                                    : English [Signs/Songs] [Viz]
Language                                 : English
Default                                  : No
Forced                                   : No

Text #13
ID                                       : 17
Format                                   : ASS
Codec ID                                 : S_TEXT/ASS
Codec ID/Info                            : Advanced Sub Station Alpha
Duration                                 : 23 min 29 s
Bit rate                                 : 66 b/s
Count of elements                        : 214
Compression mode                         : Lossless
Stream size                              : 11.4 KiB (0%)
Title                                    : Français [Kana]
Language                                 : French
Default                                  : No
Forced                                   : No

Text #14
ID                                       : 18
Format                                   : ASS
Codec ID                                 : S_TEXT/ASS
Codec ID/Info                            : Advanced Sub Station Alpha
Duration                                 : 9 min 33 s
Bit rate                                 : 3 b/s
Count of elements                        : 8
Compression mode                         : Lossless
Stream size                              : 280 Bytes (0%)
Title                                    : Français [Forcés]
Language                                 : French
Default                                  : No
Forced                                   : No

Text #15
ID                                       : 19
Format                                   : ASS
Codec ID                                 : S_TEXT/ASS
Codec ID/Info                            : Advanced Sub Station Alpha
Duration                                 : 23 min 16 s
Bit rate                                 : 84 b/s
Count of elements                        : 260
Compression mode                         : Lossless
Stream size                              : 14.4 KiB (0%)
Title                                    : 日本語 [CC]
Language                                 : Japanese
Default                                  : No
Forced                                   : No

Menu
00:00:00.000                             : en:Prologue
00:00:34.034                             : en:Opening
00:01:54.031                             : en:Part A
00:12:17.070                             : en:Part B
00:22:00.110                             : en:Ending
00:23:20.107                             : en:Preview
beta
Anime DDL+NZB mirror
Current Time: 20/06/2024 21:51



About/FAQs

Discord