Douluo Dalu - Soul Land Season 2 Ep - 94 [120] Eng Subs [1080p].mkv


File Size490.2 MB (514,042,649 bytes)
DownloadAnonFiles | ClickNUpload | DropAPK | Free | MultiUp
  • BdUpload
  • DownAce
  • Fichier
  • FileCloud
  • Filerio
  • FilesCdn
  • IndiShare
  • Kbagi
  • Turbobit
  • UpToBox
  • Uppit
| SolidFiles | ZippyShare
Sendspace: Part1, Part2
HashesCRC32: 4F08EC6B, MD5: B56A601668381F41E4576CA3A0D68815, SHA1: B9C4B2DD2616002A5D6E444FABB887FE2BE8FC55, SHA256: BAF0345B15741C10B3B1A9EE560A02757CA227B0CD118F4BC1665A413C76A122, ED2K: 966698C3F453BF2A4A0991BCDF9A343C
Screenshots
screenshotscreenshotscreenshotscreenshotscreenshot
SubtitlesAll Attachments | eng [ASS], eng [SRT]
Additional Info
General
Unique ID                                : 262674140990411110193222050279324915791 (0xC59D330A3CD09E21B7E2CDDDFB94184F)
Complete name                            : Douluo Dalu - Soul Land Season 2 Ep - 94 [120] Eng Subs [1080p].mkv
Format                                   : Matroska
Format version                           : Version 4
File size                                : 490 MiB
Duration                                 : 20 min 29 s
Overall bit rate                         : 3 344 kb/s
Encoded date                             : UTC 2020-09-05 10:42:29
Writing application                      : mkvmerge v42.0.0 ('Overtime') 64-bit
Writing library                          : libebml v1.3.10 + libmatroska v1.5.2

Video
ID                                       : 2
Format                                   : AVC
Format/Info                              : Advanced Video Codec
Format profile                           : High@L4
Format settings                          : CABAC / 4 Ref Frames
Format settings, CABAC                   : Yes
Format settings, ReFrames                : 4 frames
Codec ID                                 : V_MPEG4/ISO/AVC
Duration                                 : 20 min 29 s
Bit rate                                 : 3 247 kb/s
Width                                    : 1 920 pixels
Height                                   : 1 080 pixels
Display aspect ratio                     : 16:9
Frame rate mode                          : Constant
Frame rate                               : 30.000 FPS
Color space                              : YUV
Chroma subsampling                       : 4:2:0
Bit depth                                : 8 bits
Scan type                                : Progressive
Bits/(Pixel*Frame)                       : 0.052
Stream size                              : 476 MiB (97%)
Default                                  : Yes
Forced                                   : No
Color range                              : Limited
Color primaries                          : BT.709
Transfer characteristics                 : BT.709
Matrix coefficients                      : BT.709

Audio
ID                                       : 3
Format                                   : AAC LC
Format/Info                              : Advanced Audio Codec Low Complexity
Codec ID                                 : A_AAC-2
Duration                                 : 20 min 29 s
Bit rate                                 : 96.0 kb/s
Channel(s)                               : 2 channels
Channel layout                           : L R
Sampling rate                            : 48.0 kHz
Frame rate                               : 46.875 FPS (1024 SPF)
Compression mode                         : Lossy
Stream size                              : 13.9 MiB (3%)
Default                                  : Yes
Forced                                   : No

Text #1
ID                                       : 1
Format                                   : ASS
Codec ID                                 : S_TEXT/ASS
Codec ID/Info                            : Advanced Sub Station Alpha
Duration                                 : 20 min 13 s
Bit rate                                 : 54 b/s
Count of elements                        : 144
Compression mode                         : Lossless
Stream size                              : 8.08 KiB (0%)
Language                                 : English
Default                                  : Yes
Forced                                   : No

Text #2
ID                                       : 4
Format                                   : UTF-8
Codec ID                                 : S_TEXT/UTF8
Codec ID/Info                            : UTF-8 Plain Text
Duration                                 : 20 min 13 s
Bit rate                                 : 34 b/s
Count of elements                        : 144
Stream size                              : 5.10 KiB (0%)
Language                                 : English
Default                                  : No
Forced                                   : No
beta
Anime DDL+NZB mirror
Current Time: 20/04/2021 14:15



About/FAQs