File Size16.23 MB (17,021,310 bytes)
DownloadClickNUpload | Jheberg | MultiUp
  • BdUpload
  • DownAce
  • Fichier
  • FileCloud
  • Filerio
  • FilesCdn
  • IndiShare
  • Kbagi
  • Turbobit
  • UpToBox
  • Uppit
| OpenLoad | Sendspace | SolidFiles | ZippyShare
HashesCRC32: 1126B84A, MD5: 92272F8D3EAA0250E12207F67B5DD7CE, SHA1: D7A67EEFE776F52B5C1D544C1C5663A09C02EA2C, SHA256: 53EC40A50CBD5B2061CB839313926DDF2354C5A81B9F484D48B41377698DB44C, ED2K: B39165E2514CF5727330EF52F51FCFF4
Screenshots
screenshot
SubtitlesAll Attachments | und [ASS]
Additional Info
General
Unique ID                                : 83020507628858881044365616940957175037 (0x3E752B0CCCD6CBDFDB89A33B156E0CFD)
Complete name                            : [Doremi].Ojamajo.Doremi.Comedy.Theater.06.[1126B84A].mkv
Format                                   : Matroska
Format version                           : Version 4
File size                                : 16.2 MiB
Duration                                 : 55 s 220 ms
Overall bit rate                         : 2 466 kb/s
Encoded date                             : UTC 2019-06-12 05:49:57
Writing application                      : mkvmerge v20.0.0 ('I Am The Sun') 64-bit
Writing library                          : libebml v1.3.5 + libmatroska v1.4.8

Video
ID                                       : 1
Format                                   : AVC
Format/Info                              : Advanced Video Codec
Format profile                           : High@L4
Format settings                          : CABAC / 3 Ref Frames
Format settings, CABAC                   : Yes
Format settings, ReFrames                : 3 frames
Codec ID                                 : V_MPEG4/ISO/AVC
Duration                                 : 55 s 167 ms
Bit rate                                 : 2 337 kb/s
Width                                    : 1 920 pixels
Height                                   : 1 080 pixels
Display aspect ratio                     : 16:9
Frame rate mode                          : Constant
Frame rate                               : 24.000 FPS
Color space                              : YUV
Chroma subsampling                       : 4:2:0
Bit depth                                : 8 bits
Scan type                                : Progressive
Bits/(Pixel*Frame)                       : 0.047
Stream size                              : 15.4 MiB (95%)
Default                                  : Yes
Forced                                   : No
Color range                              : Limited
Color primaries                          : BT.709
Transfer characteristics                 : BT.709
Matrix coefficients                      : BT.709

Audio
ID                                       : 2
Format                                   : AAC LC
Format/Info                              : Advanced Audio Codec Low Complexity
Codec ID                                 : A_AAC-2
Duration                                 : 55 s 217 ms
Bit rate                                 : 128 kb/s
Channel(s)                               : 2 channels
Channel layout                           : L R
Sampling rate                            : 44.1 kHz
Frame rate                               : 43.066 FPS (1024 SPF)
Compression mode                         : Lossy
Stream size                              : 863 KiB (5%)
Language                                 : English
Default                                  : Yes
Forced                                   : No

Text
ID                                       : 3
Format                                   : ASS
Codec ID                                 : S_TEXT/ASS
Codec ID/Info                            : Advanced Sub Station Alpha
Duration                                 : 54 s 600 ms
Bit rate                                 : 204 b/s
Count of elements                        : 20
Compression mode                         : Lossless
Stream size                              : 1.36 KiB (0%)
Default                                  : Yes
Forced                                   : No
beta
Anime DDL+NZB mirror
Current Time: 18/07/2019 22:38



About/FAQs