File Size356.8 MB (374,136,774 bytes)
DownloadClickNUpload | DailyUploads | DownloadGG | GoFile | KrakenFiles | MdiaLoad | MultiUp
  • BdUpload
  • DownAce
  • Fichier
  • FileCloud
  • Filerio
  • FilesCdn
  • IndiShare
  • Kbagi
  • Turbobit
  • UpToBox
  • Uppit
| Uppit
HashesCRC32: 749BFD02, MD5: B9EB904EBF6DD67CA3557E5DB7FF4BFC, SHA1: 07B20E995B50E8F5273BCBF0EFCE5C0996938A88, SHA256: 7AA13F36F2D35EF6D2D7F85B6BEDC349E7FE6928E67A7B0893C6D14940802E7B, ED2K: 76F4F3FED0D13D65126853907D6DA459
Screenshots
screenshotscreenshotscreenshotscreenshotscreenshot
SubtitlesAll Attachments | English / English(US) [eng, ASS], Spanish (Latin American) / Español (América Latina) [spa, ASS], Spanish / Español (España) [spa, ASS], French / Français (France) [fre, ASS], Portuguese (Brazilian) / Português (Brasil) [por, ASS], Italian / Italiano [ita, ASS], German / Deutsch [ger, ASS], Russian / Русский [rus, ASS]
Additional Info
General
Unique ID                                : 64133730276506884475190841790915189678 (0x303FB50856879F24FB5ADDBC34D89BAE)
Complete name                            : [DKB] Tensei shitara Slime Datta Ken - Coleus no Yume - E03 [1080p][HEVC x265 10bit][Multi-Subs].mkv
Format                                   : Matroska
Format version                           : Version 4
File size                                : 357 MiB
Duration                                 : 24 min 30 s
Overall bit rate                         : 2 036 kb/s
Frame rate                               : 23.976 FPS
Encoded date                             : 2023-11-01 01:39:03 UTC
Writing application                      : mkvmerge v79.0 ('Funeral Pyres') 64-bit
Writing library                          : libebml v1.4.4 + libmatroska v1.7.1
Attachments                              : arial.ttf / arialbd.ttf / comic.ttf / georgia.ttf / impact.ttf / tahoma.ttf / times.ttf / trebuc.ttf / verdana.ttf

Video
ID                                       : 1
Format                                   : HEVC
Format/Info                              : High Efficiency Video Coding
Format profile                           : Main 10@L5@Main
Codec ID                                 : V_MPEGH/ISO/HEVC
Duration                                 : 24 min 30 s
Bit rate                                 : 1 887 kb/s
Width                                    : 1 920 pixels
Height                                   : 1 080 pixels
Display aspect ratio                     : 16:9
Frame rate mode                          : Variable
Frame rate                               : 23.976 FPS
Color space                              : YUV
Chroma subsampling                       : 4:2:0
Bit depth                                : 10 bits
Bits/(Pixel*Frame)                       : 0.038
Stream size                              : 331 MiB (93%)
Title                                    : [DKB Team]
Writing library                          : x265 3.5+104+20-5f9a54004:[Windows][MSVC 1937][64 bit] 10bit
Encoding settings                        : cpuid=1111039 / frame-threads=4 / numa-pools=24 / wpp / no-pmode / no-pme / no-psnr / no-ssim / log-level=2 / input-csp=1 / input-res=1920x1080 / interlace=0 / total-frames=35246 / level-idc=0 / high-tier=1 / uhd-bd=0 / ref=6 / no-allow-non-conformance / no-repeat-headers / annexb / no-aud / no-eob / no-eos / no-hrd / info / hash=0 / temporal-layers=0 / open-gop / min-keyint=24 / keyint=250 / gop-lookahead=0 / bframes=8 / b-adapt=2 / b-pyramid / bframe-bias=0 / rc-lookahead=120 / lookahead-slices=4 / scenecut=40 / no-hist-scenecut / radl=0 / no-splice / no-intra-refresh / ctu=64 / min-cu-size=8 / rect / no-amp / max-tu-size=32 / tu-inter-depth=1 / tu-intra-depth=1 / limit-tu=0 / rdoq-level=2 / dynamic-rd=0.00 / no-ssim-rd / signhide / no-tskip / nr-intra=0 / nr-inter=0 / no-constrained-intra / strong-intra-smoothing / max-merge=3 / limit-refs=3 / limit-modes / me=2 / subme=3 / merange=57 / temporal-mvp / no-frame-dup / hme / Level / merange / L0,L1,L2=16,32,57 / weightp / weightb / no-analyze-src-pics / deblock=-1:-1 / sao / no-sao-non-deblock / rd=4 / selective-sao=4 / no-early-skip / rskip / no-fast-intra / no-tskip-fast / no-cu-lossless / no-b-intra / no-splitrd-skip / rdpenalty=0 / psy-rd=0.90 / psy-rdoq=1.35 / no-rd-refine / no-lossless / cbqpoffs=-1 / crqpoffs=-1 / rc=crf / crf=20.3 / qcomp=0.72 / qpstep=4 / stats-write=0 / stats-read=0 / ipratio=1.40 / pbratio=1.30 / aq-mode=3 / aq-strength=1.00 / aq-bias-strength=1.00 / cutree / zone-count=0 / no-strict-cbr / qg-size=32 / no-rc-grain / qpmax=69 / qpmin=0 / no-const-vbv / sar=0 / overscan=0 / videoformat=5 / range=0 / colorprim=1 / transfer=1 / colormatrix=1 / chromaloc=0 / display-window=0 / cll=0,0 / min-luma=0 / max-luma=1023 / log2-max-poc-lsb=8 / vui-timing-info / vui-hrd-info / slices=1 / no-opt-qp-pps / no-opt-ref-list-length-pps / no-multi-pass-opt-rps / scenecut-bias=0.05 / no-opt-cu-delta-qp / no-aq-motion / no-hdr10 / no-hdr10-opt / no-dhdr10-opt / no-idr-recovery-sei / analysis-reuse-level=0 / analysis-save-reuse-level=0 / analysis-load-reuse-level=0 / scale-factor=0 / refine-intra=0 / refine-inter=0 / refine-mv=1 / refine-ctu-distortion=0 / no-limit-sao / ctu-info=0 / no-lowpass-dct / refine-analysis-type=0 / copy-pic=1 / max-ausize-factor=1.0 / no-dynamic-refine / no-single-sei / no-hevc-aq / no-svt / no-field / qp-adaptation-range=1.00 / scenecut-aware-qp=0 / conformance-window-offsets / right=0 / bottom=0 / decoder-max-rate=0 / no-vbv-live-multi-pass / no-mcstf / no-sbrc
Default                                  : Yes
Forced                                   : No
Color range                              : Limited
Color primaries                          : BT.709
Transfer characteristics                 : BT.709
Matrix coefficients                      : BT.709

Audio
ID                                       : 2
Format                                   : AAC LC
Format/Info                              : Advanced Audio Codec Low Complexity
Codec ID                                 : A_AAC-2
Duration                                 : 24 min 30 s
Bit rate                                 : 128 kb/s
Channel(s)                               : 2 channels
Channel layout                           : L R
Sampling rate                            : 44.1 kHz
Frame rate                               : 43.066 FPS (1024 SPF)
Compression mode                         : Lossy
Stream size                              : 22.4 MiB (6%)
Title                                    : Japanese
Language                                 : Japanese
Default                                  : No
Forced                                   : No

Text #1
ID                                       : 3
Format                                   : ASS
Codec ID                                 : S_TEXT/ASS
Codec ID/Info                            : Advanced Sub Station Alpha
Duration                                 : 24 min 7 s
Bit rate                                 : 152 b/s
Frame rate                               : 0.271 FPS
Count of elements                        : 392
Compression mode                         : Lossless
Stream size                              : 26.9 KiB (0%)
Title                                    : English / English(US)
Language                                 : English
Default                                  : Yes
Forced                                   : No

Text #2
ID                                       : 4
Format                                   : ASS
Codec ID                                 : S_TEXT/ASS
Codec ID/Info                            : Advanced Sub Station Alpha
Duration                                 : 24 min 6 s
Bit rate                                 : 138 b/s
Frame rate                               : 0.240 FPS
Count of elements                        : 347
Compression mode                         : Lossless
Stream size                              : 24.4 KiB (0%)
Title                                    : Spanish (Latin American) / Español (América Latina)
Language                                 : Spanish
Default                                  : No
Forced                                   : No

Text #3
ID                                       : 5
Format                                   : ASS
Codec ID                                 : S_TEXT/ASS
Codec ID/Info                            : Advanced Sub Station Alpha
Duration                                 : 24 min 6 s
Bit rate                                 : 139 b/s
Frame rate                               : 0.240 FPS
Count of elements                        : 347
Compression mode                         : Lossless
Stream size                              : 24.6 KiB (0%)
Title                                    : Spanish / Español (España)
Language                                 : Spanish
Default                                  : No
Forced                                   : No

Text #4
ID                                       : 6
Format                                   : ASS
Codec ID                                 : S_TEXT/ASS
Codec ID/Info                            : Advanced Sub Station Alpha
Duration                                 : 24 min 7 s
Bit rate                                 : 154 b/s
Frame rate                               : 0.260 FPS
Count of elements                        : 376
Compression mode                         : Lossless
Stream size                              : 27.3 KiB (0%)
Title                                    : French / Français (France)
Language                                 : French
Default                                  : No
Forced                                   : No

Text #5
ID                                       : 7
Format                                   : ASS
Codec ID                                 : S_TEXT/ASS
Codec ID/Info                            : Advanced Sub Station Alpha
Duration                                 : 24 min 7 s
Bit rate                                 : 153 b/s
Frame rate                               : 0.269 FPS
Count of elements                        : 389
Compression mode                         : Lossless
Stream size                              : 27.2 KiB (0%)
Title                                    : Portuguese (Brazilian) / Português (Brasil)
Language                                 : Portuguese
Default                                  : No
Forced                                   : No

Text #6
ID                                       : 8
Format                                   : ASS
Codec ID                                 : S_TEXT/ASS
Codec ID/Info                            : Advanced Sub Station Alpha
Duration                                 : 24 min 6 s
Bit rate                                 : 167 b/s
Frame rate                               : 0.294 FPS
Count of elements                        : 425
Compression mode                         : Lossless
Stream size                              : 29.6 KiB (0%)
Title                                    : Italian / Italiano
Language                                 : Italian
Default                                  : No
Forced                                   : No

Text #7
ID                                       : 9
Format                                   : ASS
Codec ID                                 : S_TEXT/ASS
Codec ID/Info                            : Advanced Sub Station Alpha
Duration                                 : 24 min 7 s
Bit rate                                 : 178 b/s
Frame rate                               : 0.255 FPS
Count of elements                        : 369
Compression mode                         : Lossless
Stream size                              : 31.6 KiB (0%)
Title                                    : German / Deutsch
Language                                 : German
Default                                  : No
Forced                                   : No

Text #8
ID                                       : 10
Format                                   : ASS
Codec ID                                 : S_TEXT/ASS
Codec ID/Info                            : Advanced Sub Station Alpha
Duration                                 : 24 min 7 s
Bit rate                                 : 234 b/s
Frame rate                               : 0.274 FPS
Count of elements                        : 397
Compression mode                         : Lossless
Stream size                              : 41.5 KiB (0%)
Title                                    : Russian / Русский
Language                                 : Russian
Default                                  : No
Forced                                   : No
beta
Anime DDL+NZB mirror
Current Time: 17/06/2024 23:05



About/FAQs

Discord