[DKB] Tengoku Daimakyou - S01E11 [1080p][HEVC x265 10bit][Multi-Audio][Multi-Subs].mkv


File Size529.0 MB (554,707,449 bytes)
DownloadClickNUpload | DownloadGG | GoFile | KrakenFiles | MdiaLoad
MultiUp: Part1
  • BdUpload
  • DownAce
  • Fichier
  • FileCloud
  • Filerio
  • FilesCdn
  • IndiShare
  • Kbagi
  • Turbobit
  • UpToBox
  • Uppit
, Part2
  • BdUpload
  • DownAce
  • Fichier
  • FileCloud
  • Filerio
  • FilesCdn
  • IndiShare
  • Kbagi
  • Turbobit
  • UpToBox
  • Uppit
HashesCRC32: 009DFF3F, MD5: 427B5BEC96CE5F77D52B8FF6F05F8BF3, SHA1: FE60DAF0ABF8C709237C5B4682BE1F2F0B35A150, SHA256: 1A05FA8B417004DA67638D363A49EEF7493166D6D63B5E88B692EC9BF9D85CD2, ED2K: 8CA13C1EA428A86E42463B6D396A71A4
Screenshots
screenshotscreenshotscreenshotscreenshotscreenshot
SubtitlesAll Attachments | English / English (US) [eng, SRT], SDH [eng, SRT], Spanish (Latin American) / Español (América Latina) [spa, SRT], Forced / Spanish (Latin American) / Español (América Latina) [spa, SRT], Spanish / Español (España) [spa, SRT], Portuguese (Brazilian) / Português (Brasil) [por, SRT], Forced / Portuguese (Brazilian) / Português (Brasil) [por, SRT], Portuguese (European) / Português (Portugal) [por, SRT], Japanese [jpn, SRT], SDH [jpn, SRT], Czech [cze, SRT], Danish [dan, SRT], German / Deutsch [ger, SRT], Greek Modern [gre, SRT], Finnish [fin, SRT], French / Français (France) [fre, SRT], Hungarian [hun, SRT], Italian / Italiano [ita, SRT], Korean [kor, SRT], Dutch [dut, SRT], Norwegian [nob, SRT], Polish [pol, SRT], Romanian [rum, SRT], Slovak [slo, SRT], Swedish [swe, SRT], Turkish [tur, SRT], Hong Kong [chi, SRT], Traditional [chi, SRT]
Additional Info
General
Unique ID                                : 182760228745731551665113219462009858584 (0x897E56F7C9C1AE810697758B16E62A18)
Complete name                            : [DKB] Tengoku Daimakyou - S01E11 [1080p][HEVC x265 10bit][Multi-Audio][Multi-Subs].mkv
Format                                   : Matroska
Format version                           : Version 4
File size                                : 529 MiB
Duration                                 : 23 min 41 s
Overall bit rate                         : 3 122 kb/s
Encoded date                             : UTC 2023-06-10 18:27:47
Writing application                      : mkvmerge v57.0.0 ('Till The End') 64-bit
Writing library                          : libebml v1.4.2 + libmatroska v1.6.4

Video
ID                                       : 1
Format                                   : HEVC
Format/Info                              : High Efficiency Video Coding
Format profile                           : Main 10@L5@Main
Codec ID                                 : V_MPEGH/ISO/HEVC
Duration                                 : 23 min 41 s
Bit rate                                 : 2 738 kb/s
Width                                    : 1 920 pixels
Height                                   : 1 080 pixels
Display aspect ratio                     : 16:9
Frame rate mode                          : Variable
Frame rate                               : 23.976 (24000/1001) FPS
Color space                              : YUV
Chroma subsampling                       : 4:2:0
Bit depth                                : 10 bits
Bits/(Pixel*Frame)                       : 0.055
Stream size                              : 464 MiB (88%)
Title                                    : [DKB Team]
Writing library                          : x265 3.5+37+12-4e46995bc:[Windows][MSVC 1931][64 bit] 10bit
Encoding settings                        : cpuid=1111039 / frame-threads=4 / numa-pools=24 / wpp / no-pmode / no-pme / no-psnr / no-ssim / log-level=2 / input-csp=1 / input-res=1920x1080 / interlace=0 / total-frames=34080 / level-idc=0 / high-tier=1 / uhd-bd=0 / ref=6 / no-allow-non-conformance / no-repeat-headers / annexb / no-aud / no-eob / no-eos / no-hrd / info / hash=0 / no-temporal-layers / open-gop / min-keyint=24 / keyint=250 / gop-lookahead=0 / bframes=8 / b-adapt=2 / b-pyramid / bframe-bias=0 / rc-lookahead=120 / lookahead-slices=4 / scenecut=40 / no-hist-scenecut / radl=0 / no-splice / no-intra-refresh / ctu=64 / min-cu-size=8 / rect / no-amp / max-tu-size=32 / tu-inter-depth=1 / tu-intra-depth=1 / limit-tu=0 / rdoq-level=2 / dynamic-rd=0.00 / no-ssim-rd / signhide / no-tskip / nr-intra=0 / nr-inter=0 / no-constrained-intra / strong-intra-smoothing / max-merge=3 / limit-refs=3 / limit-modes / me=2 / subme=3 / merange=57 / temporal-mvp / no-frame-dup / hme / Level / merange / L0,L1,L2=16,32,57 / weightp / weightb / no-analyze-src-pics / deblock=-1:-1 / sao / no-sao-non-deblock / rd=4 / selective-sao=4 / no-early-skip / rskip / no-fast-intra / no-tskip-fast / no-cu-lossless / no-b-intra / no-splitrd-skip / rdpenalty=0 / psy-rd=0.90 / psy-rdoq=1.35 / no-rd-refine / no-lossless / cbqpoffs=-1 / crqpoffs=-1 / rc=crf / crf=20.1 / qcomp=0.72 / qpstep=4 / stats-write=0 / stats-read=0 / ipratio=1.40 / pbratio=1.30 / aq-mode=3 / aq-strength=1.00 / aq-bias-strength=1.00 / cutree / zone-count=0 / no-strict-cbr / qg-size=32 / no-rc-grain / qpmax=69 / qpmin=0 / no-const-vbv / sar=0 / overscan=0 / videoformat=5 / range=0 / colorprim=1 / transfer=1 / colormatrix=1 / chromaloc=0 / display-window=0 / cll=0,0 / min-luma=0 / max-luma=1023 / log2-max-poc-lsb=8 / vui-timing-info / vui-hrd-info / slices=1 / no-opt-qp-pps / no-opt-ref-list-length-pps / no-multi-pass-opt-rps / scenecut-bias=0.05 / hist-threshold=0.03 / no-opt-cu-delta-qp / no-aq-motion / no-hdr10 / no-hdr10-opt / no-dhdr10-opt / no-idr-recovery-sei / analysis-reuse-level=0 / analysis-save-reuse-level=0 / analysis-load-reuse-level=0 / scale-factor=0 / refine-intra=0 / refine-inter=0 / refine-mv=1 / refine-ctu-distortion=0 / no-limit-sao / ctu-info=0 / no-lowpass-dct / refine-analysis-type=0 / copy-pic=1 / max-ausize-factor=1.0 / no-dynamic-refine / no-single-sei / no-hevc-aq / no-svt / no-field / qp-adaptation-range=1.00 / scenecut-aware-qp=0conformance-window-offsets / right=0 / bottom=0 / decoder-max-rate=0 / no-vbv-live-multi-pass
Default                                  : Yes
Forced                                   : No
Color range                              : Limited
Color primaries                          : BT.709
Transfer characteristics                 : BT.709
Matrix coefficients                      : BT.709

Audio #1
ID                                       : 2
Format                                   : AAC LC
Format/Info                              : Advanced Audio Codec Low Complexity
Codec ID                                 : A_AAC-2
Duration                                 : 23 min 41 s
Bit rate                                 : 125 kb/s
Channel(s)                               : 2 channels
Channel layout                           : L R
Sampling rate                            : 48.0 kHz
Frame rate                               : 46.875 FPS (1024 SPF)
Compression mode                         : Lossy
Stream size                              : 21.2 MiB (4%)
Title                                    : Japanese
Language                                 : Japanese
Default                                  : Yes
Forced                                   : No

Audio #2
ID                                       : 3
Format                                   : AAC LC
Format/Info                              : Advanced Audio Codec Low Complexity
Codec ID                                 : A_AAC-2
Duration                                 : 23 min 41 s
Bit rate                                 : 125 kb/s
Channel(s)                               : 2 channels
Channel layout                           : L R
Sampling rate                            : 48.0 kHz
Frame rate                               : 46.875 FPS (1024 SPF)
Compression mode                         : Lossy
Stream size                              : 21.2 MiB (4%)
Title                                    : Spanish (Latin American) / Español (América Latina)
Language                                 : Spanish
Default                                  : No
Forced                                   : No

Audio #3
ID                                       : 4
Format                                   : AAC LC
Format/Info                              : Advanced Audio Codec Low Complexity
Codec ID                                 : A_AAC-2
Duration                                 : 23 min 41 s
Bit rate                                 : 125 kb/s
Channel(s)                               : 2 channels
Channel layout                           : L R
Sampling rate                            : 48.0 kHz
Frame rate                               : 46.875 FPS (1024 SPF)
Compression mode                         : Lossy
Stream size                              : 21.2 MiB (4%)
Title                                    : Portuguese (Brazilian) / Português (Brasil)
Language                                 : Portuguese
Default                                  : No
Forced                                   : No

Text #1
ID                                       : 5
Format                                   : UTF-8
Codec ID                                 : S_TEXT/UTF8
Codec ID/Info                            : UTF-8 Plain Text
Duration                                 : 21 min 58 s
Bit rate                                 : 63 b/s
Count of elements                        : 308
Stream size                              : 10.2 KiB (0%)
Title                                    : English / English (US)
Language                                 : English
Default                                  : Yes
Forced                                   : No

Text #2
ID                                       : 6
Format                                   : UTF-8
Codec ID                                 : S_TEXT/UTF8
Codec ID/Info                            : UTF-8 Plain Text
Duration                                 : 22 min 9 s
Bit rate                                 : 72 b/s
Count of elements                        : 364
Stream size                              : 11.8 KiB (0%)
Title                                    : SDH
Language                                 : English
Default                                  : No
Forced                                   : No

Text #3
ID                                       : 7
Format                                   : UTF-8
Codec ID                                 : S_TEXT/UTF8
Codec ID/Info                            : UTF-8 Plain Text
Duration                                 : 23 min 23 s
Bit rate                                 : 54 b/s
Count of elements                        : 306
Stream size                              : 9.32 KiB (0%)
Title                                    : Spanish (Latin American) / Español (América Latina)
Language                                 : Spanish
Default                                  : No
Forced                                   : No

Text #4
ID                                       : 8
Format                                   : UTF-8
Codec ID                                 : S_TEXT/UTF8
Codec ID/Info                            : UTF-8 Plain Text
Duration                                 : 6 min 32 s
Bit rate                                 : 2 b/s
Count of elements                        : 3
Stream size                              : 102 Bytes (0%)
Title                                    : Forced / Spanish (Latin American) / Español (América Latina)
Language                                 : Spanish
Default                                  : No
Forced                                   : Yes

Text #5
ID                                       : 9
Format                                   : UTF-8
Codec ID                                 : S_TEXT/UTF8
Codec ID/Info                            : UTF-8 Plain Text
Duration                                 : 23 min 23 s
Bit rate                                 : 60 b/s
Count of elements                        : 308
Stream size                              : 10.3 KiB (0%)
Title                                    : Spanish / Español (España)
Language                                 : Spanish
Default                                  : No
Forced                                   : No

Text #6
ID                                       : 10
Format                                   : UTF-8
Codec ID                                 : S_TEXT/UTF8
Codec ID/Info                            : UTF-8 Plain Text
Duration                                 : 23 min 23 s
Bit rate                                 : 57 b/s
Count of elements                        : 309
Stream size                              : 9.80 KiB (0%)
Title                                    : Portuguese (Brazilian) / Português (Brasil)
Language                                 : Portuguese
Default                                  : No
Forced                                   : No

Text #7
ID                                       : 11
Format                                   : UTF-8
Codec ID                                 : S_TEXT/UTF8
Codec ID/Info                            : UTF-8 Plain Text
Duration                                 : 20 min 19 s
Bit rate                                 : 0 b/s
Count of elements                        : 2
Stream size                              : 50.0 Bytes (0%)
Title                                    : Forced / Portuguese (Brazilian) / Português (Brasil)
Language                                 : Portuguese
Default                                  : No
Forced                                   : Yes

Text #8
ID                                       : 12
Format                                   : UTF-8
Codec ID                                 : S_TEXT/UTF8
Codec ID/Info                            : UTF-8 Plain Text
Duration                                 : 23 min 23 s
Bit rate                                 : 58 b/s
Count of elements                        : 308
Stream size                              : 10.1 KiB (0%)
Title                                    : Portuguese (European) / Português (Portugal)
Language                                 : Portuguese
Default                                  : No
Forced                                   : No

Text #9
ID                                       : 13
Format                                   : UTF-8
Codec ID                                 : S_TEXT/UTF8
Codec ID/Info                            : UTF-8 Plain Text
Duration                                 : 23 min 36 s
Bit rate                                 : 82 b/s
Count of elements                        : 380
Stream size                              : 14.3 KiB (0%)
Title                                    : Japanese
Language                                 : Japanese
Default                                  : No
Forced                                   : No

Text #10
ID                                       : 14
Format                                   : UTF-8
Codec ID                                 : S_TEXT/UTF8
Codec ID/Info                            : UTF-8 Plain Text
Duration                                 : 23 min 36 s
Bit rate                                 : 82 b/s
Count of elements                        : 380
Stream size                              : 14.3 KiB (0%)
Title                                    : SDH
Language                                 : Japanese
Default                                  : No
Forced                                   : No

Text #11
ID                                       : 15
Format                                   : UTF-8
Codec ID                                 : S_TEXT/UTF8
Codec ID/Info                            : UTF-8 Plain Text
Duration                                 : 23 min 23 s
Bit rate                                 : 54 b/s
Count of elements                        : 291
Stream size                              : 9.38 KiB (0%)
Title                                    : Czech
Language                                 : Czech
Default                                  : No
Forced                                   : No

Text #12
ID                                       : 16
Format                                   : UTF-8
Codec ID                                 : S_TEXT/UTF8
Codec ID/Info                            : UTF-8 Plain Text
Duration                                 : 23 min 23 s
Bit rate                                 : 56 b/s
Count of elements                        : 309
Stream size                              : 9.60 KiB (0%)
Title                                    : Danish
Language                                 : Danish
Default                                  : No
Forced                                   : No

Text #13
ID                                       : 17
Format                                   : UTF-8
Codec ID                                 : S_TEXT/UTF8
Codec ID/Info                            : UTF-8 Plain Text
Duration                                 : 23 min 23 s
Bit rate                                 : 61 b/s
Count of elements                        : 277
Stream size                              : 10.5 KiB (0%)
Title                                    : German / Deutsch
Language                                 : German
Default                                  : No
Forced                                   : No

Text #14
ID                                       : 18
Format                                   : UTF-8
Codec ID                                 : S_TEXT/UTF8
Codec ID/Info                            : UTF-8 Plain Text
Duration                                 : 23 min 23 s
Bit rate                                 : 99 b/s
Count of elements                        : 306
Stream size                              : 17.0 KiB (0%)
Title                                    : Greek Modern
Language                                 : Greek
Default                                  : No
Forced                                   : No

Text #15
ID                                       : 19
Format                                   : UTF-8
Codec ID                                 : S_TEXT/UTF8
Codec ID/Info                            : UTF-8 Plain Text
Duration                                 : 23 min 23 s
Bit rate                                 : 54 b/s
Count of elements                        : 291
Stream size                              : 9.41 KiB (0%)
Title                                    : Finnish
Language                                 : Finnish
Default                                  : No
Forced                                   : No

Text #16
ID                                       : 20
Format                                   : UTF-8
Codec ID                                 : S_TEXT/UTF8
Codec ID/Info                            : UTF-8 Plain Text
Duration                                 : 23 min 23 s
Bit rate                                 : 55 b/s
Count of elements                        : 307
Stream size                              : 9.53 KiB (0%)
Title                                    : French / Français (France)
Language                                 : French
Default                                  : No
Forced                                   : No

Text #17
ID                                       : 21
Format                                   : UTF-8
Codec ID                                 : S_TEXT/UTF8
Codec ID/Info                            : UTF-8 Plain Text
Duration                                 : 23 min 23 s
Bit rate                                 : 56 b/s
Count of elements                        : 299
Stream size                              : 9.76 KiB (0%)
Title                                    : Hungarian
Language                                 : Hungarian
Default                                  : No
Forced                                   : No

Text #18
ID                                       : 22
Format                                   : UTF-8
Codec ID                                 : S_TEXT/UTF8
Codec ID/Info                            : UTF-8 Plain Text
Duration                                 : 23 min 23 s
Bit rate                                 : 58 b/s
Count of elements                        : 309
Stream size                              : 9.94 KiB (0%)
Title                                    : Italian / Italiano
Language                                 : Italian
Default                                  : No
Forced                                   : No

Text #19
ID                                       : 23
Format                                   : UTF-8
Codec ID                                 : S_TEXT/UTF8
Codec ID/Info                            : UTF-8 Plain Text
Duration                                 : 23 min 23 s
Bit rate                                 : 60 b/s
Count of elements                        : 309
Stream size                              : 10.4 KiB (0%)
Title                                    : Korean
Language                                 : Korean
Default                                  : No
Forced                                   : No

Text #20
ID                                       : 24
Format                                   : UTF-8
Codec ID                                 : S_TEXT/UTF8
Codec ID/Info                            : UTF-8 Plain Text
Duration                                 : 23 min 23 s
Bit rate                                 : 50 b/s
Count of elements                        : 301
Stream size                              : 8.59 KiB (0%)
Title                                    : Dutch
Language                                 : Dutch
Default                                  : No
Forced                                   : No

Text #21
ID                                       : 25
Format                                   : UTF-8
Codec ID                                 : S_TEXT/UTF8
Codec ID/Info                            : UTF-8 Plain Text
Duration                                 : 23 min 23 s
Bit rate                                 : 56 b/s
Count of elements                        : 303
Stream size                              : 9.75 KiB (0%)
Title                                    : Norwegian
Language                                 : Norwegian Bokmal
Default                                  : No
Forced                                   : No

Text #22
ID                                       : 26
Format                                   : UTF-8
Codec ID                                 : S_TEXT/UTF8
Codec ID/Info                            : UTF-8 Plain Text
Duration                                 : 23 min 23 s
Bit rate                                 : 51 b/s
Count of elements                        : 306
Stream size                              : 8.75 KiB (0%)
Title                                    : Polish
Language                                 : Polish
Default                                  : No
Forced                                   : No

Text #23
ID                                       : 27
Format                                   : UTF-8
Codec ID                                 : S_TEXT/UTF8
Codec ID/Info                            : UTF-8 Plain Text
Duration                                 : 23 min 23 s
Bit rate                                 : 54 b/s
Count of elements                        : 266
Stream size                              : 9.25 KiB (0%)
Title                                    : Romanian
Language                                 : Romanian
Default                                  : No
Forced                                   : No

Text #24
ID                                       : 28
Format                                   : UTF-8
Codec ID                                 : S_TEXT/UTF8
Codec ID/Info                            : UTF-8 Plain Text
Duration                                 : 23 min 23 s
Bit rate                                 : 51 b/s
Count of elements                        : 303
Stream size                              : 8.88 KiB (0%)
Title                                    : Slovak
Language                                 : Slovak
Default                                  : No
Forced                                   : No

Text #25
ID                                       : 29
Format                                   : UTF-8
Codec ID                                 : S_TEXT/UTF8
Codec ID/Info                            : UTF-8 Plain Text
Duration                                 : 23 min 23 s
Bit rate                                 : 61 b/s
Count of elements                        : 309
Stream size                              : 10.5 KiB (0%)
Title                                    : Swedish
Language                                 : Swedish
Default                                  : No
Forced                                   : No

Text #26
ID                                       : 30
Format                                   : UTF-8
Codec ID                                 : S_TEXT/UTF8
Codec ID/Info                            : UTF-8 Plain Text
Duration                                 : 23 min 23 s
Bit rate                                 : 58 b/s
Count of elements                        : 305
Stream size                              : 9.97 KiB (0%)
Title                                    : Turkish
Language                                 : Turkish
Default                                  : No
Forced                                   : No

Text #27
ID                                       : 31
Format                                   : UTF-8
Codec ID                                 : S_TEXT/UTF8
Codec ID/Info                            : UTF-8 Plain Text
Duration                                 : 23 min 23 s
Bit rate                                 : 48 b/s
Count of elements                        : 308
Stream size                              : 8.33 KiB (0%)
Title                                    : Hong Kong
Language                                 : Chinese
Default                                  : No
Forced                                   : No

Text #28
ID                                       : 32
Format                                   : UTF-8
Codec ID                                 : S_TEXT/UTF8
Codec ID/Info                            : UTF-8 Plain Text
Duration                                 : 23 min 23 s
Bit rate                                 : 52 b/s
Count of elements                        : 308
Stream size                              : 9.05 KiB (0%)
Title                                    : Traditional
Language                                 : Chinese
Default                                  : No
Forced                                   : No

Menu
00:00:00.000                             : Scene 1
00:01:15.993                             : Intro
00:02:44.289                             : Scene 2
00:22:13.125                             : Credits
beta
Anime DDL+NZB mirror
Current Time: 13/07/2024 00:23



About/FAQs

Discord