[DKB] Soukou Musume Senki - S01E02 [1080p][HEVC-265 10bit][Eng-Subs].mkv


File Size330.4 MB (346,448,271 bytes)
DownloadAnonFiles | ClickNUpload | DropAPK | Free | MultiUp
  • BdUpload
  • DownAce
  • Fichier
  • FileCloud
  • Filerio
  • FilesCdn
  • IndiShare
  • Kbagi
  • Turbobit
  • UpToBox
  • Uppit
| SolidFiles | ZippyShare
HashesCRC32: 65C635CA, MD5: E97369FB9820F2B07C7E18A090AEDAE6, SHA1: 5BE39E3AD542FFE254E9645108EAFD132CE7EF05, SHA256: 949D3A17AC01A57E56A40769C23607515BA1B57CC359601D639677FFE8D8E971, ED2K: A98A370CBD4DA08042388DF69F471B2A
Screenshots
screenshotscreenshotscreenshotscreenshotscreenshot
SubtitlesAll Attachments | English (US) [eng, ASS]
Additional Info
General
Unique ID                                : 219886486137234062037033695915589100708 (0xA56C98C8005A197E8B43F7F3A545E4A4)
Complete name                            : [DKB] Soukou Musume Senki - S01E02 [1080p][HEVC-265 10bit][Eng-Subs].mkv
Format                                   : Matroska
Format version                           : Version 4
File size                                : 330 MiB
Duration                                 : 23 min 47 s
Overall bit rate                         : 1 942 kb/s
Writing application                      : Lavf57.83.100
Writing library                          : Lavf57.83.100
ErrorDetectionType                       : Per level 1
Attachments                              : OpenSans-Semibold.ttf

Video
ID                                       : 1
Format                                   : HEVC
Format/Info                              : High Efficiency Video Coding
Format profile                           : Main 10@L4@Main
Codec ID                                 : V_MPEGH/ISO/HEVC
Duration                                 : 23 min 47 s
Bit rate                                 : 7 264 kb/s
Width                                    : 1 920 pixels
Height                                   : 1 080 pixels
Display aspect ratio                     : 16:9
Frame rate mode                          : Constant
Frame rate                               : 23.976 (23976/1000) FPS
Original frame rate                      : 23.976 (24000/1001) FPS
Color space                              : YUV
Chroma subsampling                       : 4:2:0
Bit depth                                : 10 bits
Bits/(Pixel*Frame)                       : 0.146
Stream size                              : 1.21 GiB
Title                                    : [DKB Team]
Writing library                          : x265 3.2.1+1-d8c36a94gebe:[Windows][GCC 9.2.0][64 bit] 10bit
Default                                  : Yes
Forced                                   : No

Audio
ID                                       : 2
Format                                   : AAC LC
Format/Info                              : Advanced Audio Codec Low Complexity
Codec ID                                 : A_AAC-2
Duration                                 : 23 min 47 s
Bit rate                                 : 253 kb/s
Channel(s)                               : 2 channels
Channel layout                           : L R
Sampling rate                            : 48.0 kHz
Frame rate                               : 46.875 FPS (1024 SPF)
Compression mode                         : Lossy
Delay relative to video                  : -42 ms
Stream size                              : 43.1 MiB (13%)
Language                                 : Japanese
Default                                  : Yes
Forced                                   : No

Text
ID                                       : 3
Format                                   : ASS
Codec ID                                 : S_TEXT/ASS
Codec ID/Info                            : Advanced Sub Station Alpha
Duration                                 : 23 min 40 s
Bit rate                                 : 95 b/s
Count of elements                        : 326
Compression mode                         : Lossless
Stream size                              : 16.3 KiB (0%)
Title                                    : English (US)
Writing library                          : Lavc57.107.100 ssa
Language                                 : English
Default                                  : Yes
Forced                                   : No
beta
Anime DDL+NZB mirror
Current Time: 30/07/2021 02:14



About/FAQs